Welcome Guest ( Log In | Register )

> Caïnan Dawn - Thavmial (2014), Black Metal
post Apr 25 2014, 01:09:48
Post #1

Правь статус, ####!111
**************
Group: Металариец
Posts: 18,502
Releases: 12520
From: Г.Харьков
On Forums: 7 years 4 months
Thanks: 212140 time(s)
Unknown


(IMG:http://metalarea.org/images/audiocovers/2014_Apr/acov_tid222326_thumb.jpg)

*Artist: Caïnan Dawn
*Album: Thavmial
*Year: 2014
*Genre: Black Metal
*Country: France (IMG:http://metalarea.org/forum/style_images/flags/France.png)
*Format: mp3@CBR320kbps
*Size: 139MB

Tracklist:
1.Keter
2.The Brood
3.Legionem Daemonicus
4.World Among Worlds
5.Karon
6.Vigrid
7.Raunen
8.Thavmial
******************************
Total playing time: 1:00:56


(IMG:http://metalarea.org/images/youtube.png)

Technical info
(IMG:http://metalarea.org/images/spectrogram/2014_Apr/3ff8addf14bc84fb0040fbdf07ff1de6.png)
Input File: 02-The Brood.mp3
Channels : 2
Sample Rate : 44100
Precision : 16-bit
Duration : 00:08:00.15 = 21174703 samples = 36011.4 CDDA sectors
File Size : 19.3M
Bit Rate : 321k
Sample Encoding: MPEG audio (layer I, II or III)
Comments :
Title=The Brood
Artist=CaГЇnan Dawn
Album=Thavmial
Tracknumber=2
Year=2014
Genre=Black Metal



Register


Go to the top of the page
  Insert nick Quick quote
+Quote Post
 
Start new topic
Replies (1 - 7)
inatas_eva_89
post Apr 25 2014, 09:31:48
Post #2

Guests team






Ожидания очень высоки, прошлый был больно хорош


Thanks:
(1) nekroport,
Go to the top of the page
  Insert nick Quick quote
+Quote Post
Kub
post Apr 25 2014, 12:06:16
Post #3

Guests team






скушно. не интересно. оригинальной композиторской мысли - ноль.
на половине устал мучать уши этой серой безликостью и вырубил.
Go to the top of the page
  Insert nick Quick quote
+Quote Post
post Apr 26 2014, 04:04:50
Post #4

..ще до загибелі
**********
Group: Металариец
Posts: 1,156
Releases: 0
From: Мати Руських Міст
On Forums: 8 years 6 months
Thanks: 923 time(s)
Ukraine


ну так.. мне скучновато изза авангардизма чтоле.. а в целом прослушал до конца. синтик прикольно фонит. (IMG:style_emoticons/default/smile1.gif)
Go to the top of the page
  Insert nick Quick quote
+Quote Post
post Apr 18 2015, 01:24:29
Post #5

Black Death Grind Madness
******
Group: Металариец
Posts: 538
Releases: 0
From: Cassilandia
On Forums: 11 years 2 months
Thanks: 55 time(s)
Brazil


Hell yeah \__/
Go to the top of the page
  Insert nick Quick quote
+Quote Post
post Jul 1 2015, 08:29:59
Post #6

Правь статус, ####!111
**************
Group: Металариец
Posts: 2,757
Releases: 18
From: Eternal darkness
On Forums: 11 years 11 months
Thanks: 6963 time(s)
Russian Federation


Register


Go to the top of the page
  Insert nick Quick quote
+Quote Post
post Oct 10 2017, 17:03:29
Post #7

I Like It Raw
***********
Group: Металариец
Posts: 1,932
Releases: 15
On Forums: 12 years 10 months
Thanks: 1071 time(s)
Russian Federation


ввиду нового альбома, перезалейте


Thanks:
(1) Glioma,
Go to the top of the page
  Insert nick Quick quote
+Quote Post
post Oct 27 2017, 07:05:47
Post #8

Маньяк
**********
Group: Металариец
Posts: 1,304
Releases: 3
From: Новороссия
On Forums: 13 years 7 months
Thanks: 713 time(s)
Russian Federation


Нашёл ссыль, держите.
Register

Ссылка не моя, а с этого блога http://mortuusinsomnis06.blogspot.ru


Thanks:
(1) kim666,
Go to the top of the page
  Insert nick Quick quote
+Quote Post

Reply to this topicStart new topic
2 User(s) are reading this topic (2 Guests and 0 Anonymous Users)
0 Members:

 



- Lo-Fi Version Support form
Copyrights and abuse reports form
Time is now: 17th September 2019 - 11:17:52