Welcome Guest ( Log In | Register )

> 

Здесь релизы с живыми прямыми ссылками на lossless

> Demona - Speaking With The Devil (2013), Old School Thrash/Speed Metal (D5)
post Apr 26 2014, 06:03:48
Post #1

Аннигилятор пивА
Group Icon
Group: V.I.P
Posts: 52,358
Releases: 16555
From: Koenigsberg - TILZIT
On Forums: 13 years 4 months
Thanks: 362645 time(s)
Russian Federation


(IMG:https://metalarea.org/images/audiocovers/2014_Apr/acov_tid222385_thumb.jpg)

*Artist: Demona
*Album: Speaking With The Devil
*Year: 2013
*Genre: Old School Thrash/Speed Metal
*Country: Chile (IMG:https://metalarea.org/forum/style_images/flags/Chile.png)
*Format: mp3@CBR320kbps
*Size: 113MB

Tracklist:
01. Exordium (Intro) 01:14
02. Malvenidos 02:41
03. Dirty Speed Metal 03:34
04. Traitors 04:52
05. Bad Boy 03:14
06. Speaking with the Devil 04:48
07. Demona 03:43
08. Stronger Than the Hardest Stone 04:51
09. Mercenario (Caid Deceit cover) 04:18
10. Sorcerer's Scapade 05:52
11. Cease to Exist (Outro) 01:17
******************************
Total playing time: 40:24




Extended info
+SCANS
Канадо-чилийские энерджайзеры по олдовому спидаку.

Tanza - Vocal / Guitar (ex-Corrosion, ex-Poisoned )
Gabrihell - Guitar (ex-Riotor)
Jeff - Bass guitar
Antoine - Drums



Technical info
(IMG:https://metalarea.org/images/spectrogram/2014_Apr/305e71d4d2f3cb216918d92cf267b844.png)
Input File: 02. 02 - Malvenidos.mp3
Channels : 2
Sample Rate : 44100
Precision : 16-bit
Duration : 00:02:41.82 = 7136262 samples = 12136.5 CDDA sectors
File Size : 6.47M
Bit Rate : 320k
Sample Encoding: MPEG audio (layer I, II or III)
Comments :
Title=02 - Malvenidos
Artist=Demona
Album=Speaking with the Devil
Tracknumber=2
Year=2013
Genre=Old School Thrash/Speed Metal



Register


Go to the top of the page
  Insert nick Quick quote
+Quote Post
 
Start new topic
Replies (1 - 6)
post Apr 26 2014, 11:27:01
Post #2

Маньяк
**********
Group: Металариец
Posts: 1,364
Releases: 5
From: Нью-Васюки
On Forums: 13 years 4 months
Thanks: 392 time(s)
Russian Federation


у вокалистки папа кстати трэшер старой закваски, гитарист.
Go to the top of the page
  Insert nick Quick quote
+Quote Post
post Apr 26 2014, 14:45:21
Post #3

Два Литра
**
Group: Завсегдатай
Posts: 157
Releases: 0
From: Нижний Новгород
On Forums: 9 years 11 months
Thanks: 35 time(s)
Russian Federation


Альбом практически без слабых мест. Значительно лучше предыдущего, что оч. радует.


Thanks:
Go to the top of the page
  Insert nick Quick quote
+Quote Post
post Apr 26 2014, 20:41:42
Post #4

Шесть Литров
******
Group: Металариец
Posts: 677
Releases: 0
From: Одесса-мама
On Forums: 10 years 8 months
Thanks: 213 time(s)
Ukraine


Спасибо!
(IMG:style_emoticons/default/metaler.gif)
Go to the top of the page
  Insert nick Quick quote
+Quote Post
post Apr 27 2014, 06:56:59
Post #5

Пять Литров
*****
Group: Металариец
Posts: 448
Releases: 0
On Forums: 13 years 9 months
Thanks: 16 time(s)
Russian Federation


Great!!! Thanks a lot.
Go to the top of the page
  Insert nick Quick quote
+Quote Post
post Jul 12 2019, 22:53:32
Post #6

Два Литра
**
Group: Завсегдатай
Posts: 180
Releases: 0
From: Madrid
On Forums: 10 years 8 months
Thanks: 38 time(s)
Mexico


Link is dead!

Can someone reup people?

Thanks in advance!
Go to the top of the page
  Insert nick Quick quote
+Quote Post
post Jul 13 2019, 03:52:55
Post #7


Group Icon
Group: S-moderation team
Posts: 12,073
Releases: 1439
From: Zagreb
On Forums: 8 years 7 months
Thanks: 52642 time(s)
Croatia


Register


Thanks:
Go to the top of the page
  Insert nick Quick quote
+Quote Post

Reply to this topicStart new topic
1 User(s) are reading this topic (1 Guests and 0 Anonymous Users)
0 Members:

 



- Lo-Fi Version Support form
Copyrights and abuse reports form
Time is now: 17th October 2019 - 18:34:24