Welcome Guest ( Log In | Register )

> JackDevil - Unholy Sacrifice (2014), Old School Thrash/Speed Metal
post May 5 2014, 06:43:29
Post #1

Аннигилятор пивА
Group Icon
Group: V.I.P
Posts: 52,360
Releases: 16550
From: Koenigsberg - TILZIT
On Forums: 14 years 1 week
Thanks: 365302 time(s)
Russian Federation


(IMG:https://metalarea.org/images/audiocovers/2014_May/acov_tid222938_thumb.jpg)

*Artist: JackDevil
*Album: Unholy Sacrifice
*Year: 2014
*Genre: Old School Thrash/Speed Metal
*Country: Brazil (IMG:https://metalarea.org/forum/style_images/flags/Brazil.png)
*Format: mp3@CBR320kbps
*Size: 81MB

Tracklist:
01. Unholy Sacrifice 03:22
02. Beastrider 03:45
03. Thrash Demons Attack 03:56
04. Age of Antichrist 03:21
05. The Coven (Bass Solo) 01:17
06. Vixen of Satan 03:37
07. Killing Razors 03:23
08. Behind the Walls 03:51
09. Insane Speed Metal 03:16
10. Under the Metal Command (Bonus Track) 04:20
******************************
Total playing time: 34:08



Extended info
André Nadler - Screams and Guitars
Renato Speedwolf - Bass
Ric Mukura - Lead Guitars
Filipe Stress - Drums





Technical info
(IMG:https://metalarea.org/images/spectrogram/2014_May/d31d4c3181fb1bd19bb4cf4c83e4794b.png)
Input File: 02 - Beastrider.mp3
Channels : 2
Sample Rate : 44100
Precision : 16-bit
Duration : 00:03:45.27 = 9934583 samples = 16895.5 CDDA sectors
File Size : 9.16M
Bit Rate : 325k
Sample Encoding: MPEG audio (layer I, II or III)
Comments :
Title=Beastrider
Artist=JackDevil
Album=Unholy Sacrifice
Tracknumber=2/10
Year=2014
Genre=Thrash Metal



Register


Go to the top of the page
  Insert nick Quick quote
+Quote Post
 
Start new topic
Replies (1 - 7)
post May 5 2014, 11:06:23
Post #2

_ - = # Thrashogolic # = - _ ... а давайте поржём все вместе
**************
Group: Металариец
Posts: 21,095
Releases: 4444
From: 404
On Forums: 9 years 11 months
Thanks: 27855 time(s)
Ukraine


Надо что ли подправить пред. релизы (чтобы находились все легко):
Jack Devil - Under The Satan Command [demo] (2012)
Jack Devil - Faster Than Evil [ep] (2013)


Thanks:
(1) access,
Go to the top of the page
  Insert nick Quick quote
+Quote Post
post May 6 2014, 08:59:33
Post #3

Join my religion, or die
**************
Group: Металариец
Posts: 10,661
Releases: 1512
From: Питера
On Forums: 10 years 8 months
Thanks: 19506 time(s)
Russian Federation


Правильные ребята (IMG:style_emoticons/default/banana.gif)


Thanks:
Go to the top of the page
  Insert nick Quick quote
+Quote Post
post May 9 2014, 09:28:30
Post #4

Правь статус, ####!111
**************
Group: Металариец
Posts: 46,493
Releases: 718
On Forums: 11 years 5 days
Thanks: 39038 time(s)
Russian Federation


Более того - это ВЕЛИКОЛЕПНЕЙШИЙ СПИД/ТРЭШ, причём спидовуха здесь именно первостепенна. Олдово настолько, насколько это максимально возможно. Вокал, музыка, мелодии - всё стремительно, грубо, сыро - грандиозно. Всем олдскульным маньякам ценить сей стафф всенепременно.


Thanks:
Go to the top of the page
  Insert nick Quick quote
+Quote Post
post Jun 20 2014, 11:32:41
Post #5

Schuldinerist
**************
Group: Металариец
Posts: 10,674
Releases: 34
From:
On Forums: 13 years 1 month
Thanks: 6866 time(s)
Russian Federation


ЦИТАТА(vosmidesijatye @ May 9 2014, 12:28:30) *
Олдово настолько, насколько это максимально возможно.

С первых же секунд первого трэка на слушателя обрушивается лязгающий басом и хрипящий харшем жирный олд-скул-трэш.
Именно таким должен был быть новый альбом Holy Moses.
9/10


Thanks:
Go to the top of the page
  Insert nick Quick quote
+Quote Post
post Apr 14 2017, 13:40:19
Post #6

железный нечеловек
**********
Group: Металариец
Posts: 1,267
Releases: 3
From: Уфа
On Forums: 11 years 1 month
Thanks: 448 time(s)
Russian Federation


Ссылк мёртв
Go to the top of the page
  Insert nick Quick quote
+Quote Post
post Apr 14 2017, 13:42:35
Post #7

Правь статус, ####!111
**************
Group: Металариец
Posts: 46,493
Releases: 718
On Forums: 11 years 5 days
Thanks: 39038 time(s)
Russian Federation


На торренте есть всё.
Go to the top of the page
  Insert nick Quick quote
+Quote Post
post Apr 14 2017, 14:03:12
Post #8

железный нечеловек
**********
Group: Металариец
Posts: 1,267
Releases: 3
From: Уфа
On Forums: 11 years 1 month
Thanks: 448 time(s)
Russian Federation


Если там есть всё, зачем тогда здесь находиться?
Go to the top of the page
  Insert nick Quick quote
+Quote Post

Reply to this topicStart new topic
1 User(s) are reading this topic (1 Guests and 0 Anonymous Users)
0 Members:

 



- Lo-Fi Version Support form
Copyrights and abuse reports form
Time is now: 7th June 2020 - 06:47:26