Welcome Guest ( Log In | Register )

> Virus Of Koch - Lux Ex Veritas (2014), Melodic Death/Black Metal (D6)
post May 9 2014, 18:14:47
Post #1

Правь статус, ####!111
**************
Group: Металариец
Posts: 19,791
Releases: 13422
From: Г.Харьков
On Forums: 7 years 6 months
Thanks: 232210 time(s)
Unknown


(IMG:http://metalarea.org/images/audiocovers/2014_May/acov_tid223323_thumb.jpg)

*Artist: Virus Of Koch
*Album: Lux Ex Veritas
*Year: 2014
*Genre: Melodic Death/Black Metal
*Country: Greece (IMG:http://metalarea.org/forum/style_images/flags/Greece.png)
*Format: mp3@VBR300kbps
*Size: 72MB

Tracklist:
1. Fleur De Lis 02:07
2. H.w.C.f.A. 04:20
3. Semen of the Serpent 05:02
4. Nameless Legions 03:33
5. Clavicula Nox 04:48
6. Noctenebra Maxima Aeterna 04:49
7. Speculum Argenteum 04:56
8. Chaos Matrix 06:30 S
******************************
Total playing time: 36:05



Technical info
(IMG:http://metalarea.org/images/spectrogram/2014_May/0378b7c62f2273465318ed0ccebbe0f2.png)
Input File: 03. Semen of the Serpent.mp3
Channels : 2
Sample Rate : 44100
Precision : 16-bit
Duration : 00:05:02.99 = 13362035 samples = 22724.5 CDDA sectors
File Size : 11.5M
Bit Rate : 303k
Sample Encoding: MPEG audio (layer I, II or III)
Comments :
Title=Semen of the Serpent
Artist=Virus Of Koch
Album=Lux Et Veritas
Tracknumber=3
Year=2014
Genre=Melodic Black Metal



Register


Go to the top of the page
  Insert nick Quick quote
+Quote Post
 
Start new topic
Replies (1 - 5)
Jacktheripper666
post May 9 2014, 19:52:42
Post #2

Guests team






Послушал, полная смена стиля по сравнению с предыдущими демками. Ничего сверхестественного, просто бронебойный ураган. Достойно прослушивания, хотя бы ради барабанов
Go to the top of the page
  Insert nick Quick quote
+Quote Post
post May 9 2014, 21:18:10
Post #3

Ёлд ХеллоВяйне
Group Icon
Group: V.I.P
Posts: 28,454
Releases: 133
From: Питер
On Forums: 13 years 1 month
Thanks: 16207 time(s)
Russian Federation


QUOTE(Jacktheripper666 @ 9th May 2014 - 22:52:42) *
бронебойный ураган


это, например, Anaal Nathrakh. Тут всё куда лиричней.
Go to the top of the page
  Insert nick Quick quote
+Quote Post
post May 21 2014, 14:54:03
Post #4

::
**************
Group: Металариец
Posts: 2,295
Releases: 3
From: Воронеж
On Forums: 9 years 7 months
Thanks: 1034 time(s)
Russian Federation


Неплохое музло так-то.
Go to the top of the page
  Insert nick Quick quote
+Quote Post
post May 22 2014, 17:25:56
Post #5

Ъ
**************
Group: Металариец
Posts: 9,773
Releases: 9
On Forums: 10 years 10 months
Thanks: 1918 time(s)
Sweden


Согласен, на пару прослушиваний вполне сойдет.
Go to the top of the page
  Insert nick Quick quote
+Quote Post
post Jun 18 2019, 22:04:26
Post #6

Два Литра
**
Group: Завсегдатай
Posts: 100
Releases: 0
On Forums: 1 year 5 months
Thanks: 14 time(s)
Mexico


Found in Ulozto.net VBR
Register


Thanks:
Go to the top of the page
  Insert nick Quick quote
+Quote Post

Reply to this topicStart new topic
1 User(s) are reading this topic (1 Guests and 0 Anonymous Users)
0 Members:

 



- Lo-Fi Version Support form
Copyrights and abuse reports form
Time is now: 8th December 2019 - 11:15:20