Welcome Guest ( Log In | Register )

> Eye Of The Enemy - The Vengeance Paradox (2014), Modern Death/Thrash Metal
post May 13 2014, 11:09:33
Post #1

Правь статус, ####!111
**************
Group: Металариец
Posts: 17,377
Releases: 11787
From: Г.Харьков
On Forums: 7 years 1 month
Thanks: 197194 time(s)
Unknown


(IMG:http://metalarea.org/images/audiocovers/2014_May/acov_tid223573_thumb.jpg)

*Artist: Eye Of The Enemy
*Album: The Vengeance Paradox
*Year: 2014
*Genre: Modern Death/Thrash Metal
*Country: Australia (IMG:http://metalarea.org/forum/style_images/flags/Australia.png)
*Format: mp3@CBR320kbps
*Size: 80MB

Tracklist:
1. The Vision 01:35
2. The Oath 03:24
3. The March 03:17
4. The Deed 03:43
5. The Shift 06:10
6. The Calm 04:21
7. The Panic 03:29
8. The Justification 03:28
9. The Irony 02:58
10. The Regret 04:02
******************************
Total playing time: 36:27



Technical info
(IMG:http://metalarea.org/images/spectrogram/2014_May/14d7e4e2241530d4739a5d3ec39ece42.png)
Input File: 03. The March.mp3
Channels : 2
Sample Rate : 44100
Precision : 16-bit
Duration : 00:03:17.64 = 8715836 samples = 14822.9 CDDA sectors
File Size : 7.91M
Bit Rate : 320k
Sample Encoding: MPEG audio (layer I, II or III)
Comments :
Title=The March
Artist=Eye of the Enemy
Album=The Vengeance Paradox
Tracknumber=3
Year=2014
Genre=Modern Death Metal



Register


Go to the top of the page
  Insert nick Quick quote
+Quote Post
 
Start new topic
Replies (1 - 5)
post May 14 2014, 13:30:18
Post #2

Тридцать лет на борту "Тяжёлого" крейсера
**************
Group: Металариец
Posts: 2,061
Releases: 0
From: Питер
On Forums: 12 years 4 days
Thanks: 513 time(s)
Russian Federation


Добротный музон.Прошлый тоже вставлял.Не сказать,что прямо уж модерн,скорее melodic thrash/death
Go to the top of the page
  Insert nick Quick quote
+Quote Post
post May 18 2014, 14:07:27
Post #3

Ъ
**************
Group: Металариец
Posts: 9,571
Releases: 9
On Forums: 10 years 5 months
Thanks: 1853 time(s)
Sweden


Прошлый лучше был, этот только шифт+дел.
Go to the top of the page
  Insert nick Quick quote
+Quote Post
post May 18 2014, 19:53:42
Post #4

_ - = # Thrashogolic # = - _ ... а давайте поржём все вместе
**************
Group: Металариец
Posts: 21,095
Releases: 4444
From: 404
On Forums: 9 years 4 hours
Thanks: 27488 time(s)
Ukraine


Про прошлый, о котором здесь упоминали Eye of the Enemy - Weight Of Redemption (2010)
Go to the top of the page
  Insert nick Quick quote
+Quote Post
post Jul 1 2014, 15:57:12
Post #5

Чёткий пацан из Автово...
Group Icon
Group: V.I.P
Posts: 8,870
Releases: 34
From: Город над вольной Невой...
On Forums: 12 years 11 months
Thanks: 4243 time(s)
Russian Federation


ЦИТАТА(sadmannn @ 14th May 2014 - 16:30:18) *
скорее melodic thrash/death

Я в общем-то согласен
Go to the top of the page
  Insert nick Quick quote
+Quote Post
post Mar 16 2019, 10:27:11
Post #6

Правь статус, ####!111
**************
Group: Металариец
Posts: 2,221
Releases: 0
On Forums: 11 months 2 weeks
Thanks: 1704 time(s)
Russian Federation


83 mb/320 kbps
Register
Go to the top of the page
  Insert nick Quick quote
+Quote Post

Reply to this topicStart new topic
1 User(s) are reading this topic (1 Guests and 0 Anonymous Users)
0 Members:

 



- Lo-Fi Version Support form
Copyrights and abuse reports form
Time is now: 16th June 2019 - 22:43:56