Welcome Guest ( Log In | Register )

> Vapor Hiemis - Пламя Зимы (2014), Black/Folk Metal/EBM
post May 18 2014, 18:34:02
Post #1

Правь статус, ####!111
**************
Group: Металариец
Posts: 2,275
Releases: 1014
From: Гиперборе́я
On Forums: 7 years 6 months
Thanks: 21280 time(s)
Russian Federation


(IMG:http://metalarea.org/images/audiocovers/2014_May/acov_tid224003_thumb.jpg)

*Artist: Vapor Hiemis
*Album: Пламя Зимы
*Year: 2014
*Genre: Black/Folk Metal/EBM
*Country: Belarus (IMG:http://metalarea.org/forum/style_images/flags/Belarus.png)
*Format: mp3@CBR320kbps
*Size: 106MB

Tracklist:
01. Intro
02. Бясконцы Шлях
03. В Дальние Дали
04. Замова
05. Сияние Арктической Бездны
06. Техногенный Зенит Катастроф
07. Маршем С Севера
08. Вервольф (Темнозорь Cover)
09. Звёздная Мистерия Тьмы (Interior Wrath Cover)
10. Чёрное Солнце
11. Outro
******************************
Total playing time: 46:26

Preview 1

Technical info
(IMG:http://metalarea.org/images/spectrogram/2014_May/6271081edfa55e6130c6225e810c34eb.png)
Input File: 03 - В Дальние Дали.mp3
Channels : 2
Sample Rate : 44100
Precision : 16-bit
Duration : 00:04:03.33 = 10730853 samples = 18249.8 CDDA sectors
File Size : 9.76M
Bit Rate : 321k
Sample Encoding: MPEG audio (layer I, II or III)
Comments :
Title=В Дальние Дали
Artist=Vapor Hiemis
Album=Пламя Зимы
Tracknumber=03/11
Year=2014
Genre=Black/Folk Metal/EBM



Register


Вернуться к началу страницы
  Insert nick Quick quote
+Цитировать сообщение
 
Создать новую тему
Replies (1 - 4)
post May 19 2014, 06:45:05
Post #2

Три Литра
***
Group: Завсегдатай
Posts: 279
Releases: 5
From: Подольск
On Forums: 8 years 11 months
Thanks: 249 time(s)
Russian Federation




Thanks:
Вернуться к началу страницы
  Insert nick Quick quote
+Цитировать сообщение
post May 19 2014, 07:08:27
Post #3

Восемь Литров
********
Group: Металариец
Posts: 808
Releases: 5
From: Киев
On Forums: 9 years 1 week
Thanks: 948 time(s)
Ukraine


Музыка- очень даже. Эдакий "припопулярненый" (IMG:style_emoticons/default/smile1.gif) ебм, где-то недалеко от xe-none. Вот голос разочаровал- на заднем фоне унылый бормочущий скрим (IMG:style_emoticons/default/22.gif)
В любом случае, данке за ознакомление (IMG:style_emoticons/default/9.gif) (IMG:style_emoticons/default/smile1.gif)


Вернуться к началу страницы
  Insert nick Quick quote
+Цитировать сообщение
post May 19 2014, 16:46:18
Post #4

Маньяк
**********
Group: Металариец
Posts: 1,072
Releases: 0
From: Беларусь
On Forums: 10 years 4 months
Thanks: 384 time(s)
Russian Federation


Отсутствует трек "Пламя зимы". По заявлению музыкантов будет доступен только на оригинальной версии цд.
Вернуться к началу страницы
  Insert nick Quick quote
+Цитировать сообщение
post Jan 12 2018, 02:34:15
Post #5

Три Литра
***
Group: Завсегдатай
Posts: 213
Releases: 1
From: Canada
On Forums: 4 years 9 months
Thanks: 384 time(s)
Canada


From web
Register
Вернуться к началу страницы
  Insert nick Quick quote
+Цитировать сообщение

ОтветитьСоздать новую тему
1 User(s) are reading this topic (1 Guests and 0 Anonymous Users)
0 Members:

 



- Lo-Fi Version Support form
Copyrights and abuse reports form
Time is now: 21st May 2018 - 07:56:00