Welcome Guest ( Log In | Register )

> И неформату есть предел.

Рэп/хип-хоп/шансон/поп удаляются. Для них есть свои порталы.

> Dead Can Dance - Chasing Spirit [bootleg] (1996), Ethno Gothic Fusion (D12)
SIG
post May 19 2014, 16:47:13
Post #1

Guests team






(IMG:http://metalarea.org/images/audiocovers/2014_May/acov_tid224059_thumb.jpg)

*Artist: Dead Can Dance
*Album: Chasing Spirit [bootleg]
*Year: 1996
*Genre: Ethno Gothic Fusion
*Country: United Kingdom (IMG:http://metalarea.org/forum/style_images/flags/United%20Kingdom.png)
*Format: mp3@CBR320kbps
*Size: 231MB

Tracklist:
CD1
1.Nierika 5:44
2.Bylar 8:19
3.Rakim 6:22
4.Song Of The Dispossesed 5:12
5.Yulunga 7:41
6.The Snake And The Moon 6:18
7.Tristan 1:53
8.Sanvean 6:13
9.Greek Rembetiki 4:28
10.Oman 6:41
11.American Dreaming 4:48
CD2
1.Indus 9:52
2.Piece For A Solo Flute 3:42
3.Cantara 5:06
4.Bolero 8:40
5.Tanamakoa 5:37
6.Dreams Made Flesh 5:04
******************************
Total playing time: 1:41:40

Extended info
Один из многочисленных концертных бутлегов команды. Spiritchaser Tour - Montreal, Canada 1996.


Technical info
(IMG:http://metalarea.org/images/spectrogram/2014_May/b008a1d372fadeb6d21b73648d4a7e18.png)
Input File: 01-nierika.mp3
Channels : 2
Sample Rate : 48000
Precision : 16-bit
Duration : 00:05:44.74 = 16547472 samples ~ 25855.4 CDDA sectors
File Size : 13.8M
Bit Rate : 320k
Sample Encoding: MPEG audio (layer I, II or III)
Comments :
Title=Nierika
Artist=Dead Can Dance
Album=Chasing Spirit [Bootleg] CD1
Tracknumber=1



Register


Go to the top of the page
  Insert nick Quick quote
+Quote Post
 
Start new topic
Replies (1 - 5)
post Jun 11 2014, 11:58:07
Post #2

Schuldinerist
**************
Group: Металариец
Posts: 10,480
Releases: 33
From:
On Forums: 12 years 10 months
Thanks: 6655 time(s)
Russian Federation


качество звука ужасное - бутлег... сам не знаю, чего ждал... скачал-послушал-удалил-забыл..
такие бутлеги только портят имя группы..
Go to the top of the page
  Insert nick Quick quote
+Quote Post
psychonaut
post Jun 11 2014, 12:28:07
Post #3

Guests team






ЦИТАТА(Язва @ Jun 11 2014, 14:58:07) *
качество звука ужасное - бутлег

Спектры вроде хорошие...
Как раз задумал переслушать их самые ранние darkwave альбомы. (IMG:style_emoticons/default/smile4.gif)
Go to the top of the page
  Insert nick Quick quote
+Quote Post
SIG
post Jun 11 2014, 13:14:12
Post #4

Guests team






Испортить имя группы может только плохая музыка. Качество - среднее для бутлега. Однако концертное исполнение песен с Spiritchaser мне понравилось больше, чем на альбоме, да и присутствует еще несколько отличных песен не вошедших в альбомы.


Go to the top of the page
  Insert nick Quick quote
+Quote Post
post Jun 11 2014, 13:18:49
Post #5

Правь статус, ####!111
**************
Group: Металариец
Posts: 45,121
Releases: 695
On Forums: 10 years 8 months
Thanks: 36792 time(s)
Russian Federation


ЦИТАТА
Ethno Gothic Fusion
(IMG:style_emoticons/default/17.gif) (IMG:style_emoticons/default/16.gif)
Go to the top of the page
  Insert nick Quick quote
+Quote Post
post Jan 1 2020, 16:14:30
Post #6
BAN
Banned till
Mar 3 2020, 16:48:31



перезалейте? желательно с тэгами.
Go to the top of the page
  Insert nick Quick quote
+Quote Post

Reply to this topicStart new topic
1 User(s) are reading this topic (1 Guests and 0 Anonymous Users)
0 Members:

 



- Lo-Fi Version Support form
Copyrights and abuse reports form
Time is now: 21st February 2020 - 04:48:26