Welcome Guest ( Log In | Register )

> Incarnator - Epidemic Prevention [ep] (2014), Technical/Progressive Death Metal (D7)
post May 21 2014, 19:42:28
Post #1

Аннигилятор пивА
Group Icon
Group: V.I.P
Posts: 46,856
Releases: 14075
From: Koenigsberg - TILZIT
On Forums: 12 years 3 weeks
Thanks: 312352 time(s)
Russian Federation


(IMG:http://metalarea.org/images/audiocovers/2014_May/acov_tid224185_thumb.jpg)

*Artist: Incarnator
*Album: Epidemic Prevention [ep]
*Year: 2014
*Genre: Technical/Progressive Death Metal
*Country: Russian Federation (IMG:http://metalarea.org/forum/style_images/flags/Russian%20Federation.png)
*Format: mp3@CBR320kbps
*Size: 40MB

Tracklist:
1. Maruta 05:10
2. Epidemic Prevention 02:32
3. Obsessed Savants 04:07
4. Extreme Aggression 04:30
******************************
Total playing time: 16:19



Extended info
Alexander Palitsin - Guitars, Drums, Vocals
Dmitry Melentyev - Guitars
Ilya Reyngard - Fretless Bass


Technical info
(IMG:http://metalarea.org/images/spectrogram/2014_May/bea957bbdc204719aa3cff7252703e5e.png)
Input File: 02. Epidemic Prevention.mp3
Channels : 2
Sample Rate : 44100
Precision : 16-bit
Duration : 00:02:32.32 = 6717400 samples = 11424.1 CDDA sectors
File Size : 6.19M
Bit Rate : 325k
Sample Encoding: MPEG audio (layer I, II or III)
Comments :
Title=Epidemic Prevention
Artist=Incarnator
Album=Epidemic Prevention
Tracknumber=2/4
Year=2014
Genre=Technical/Progressive Death Metal



Register


Go to the top of the page
  Insert nick Quick quote
+Quote Post
 
Start new topic
Replies (1 - 5)
post May 22 2014, 10:05:53
Post #2

Семь Литров
*******
Group: Металариец
Posts: 745
Releases: 9
From: Симферополь (Крым)
On Forums: 11 years 8 months
Thanks: 453 time(s)
Ukraine


раньше шульдинерметал был вроде не? что там сейчас у них, заслушаем-с.)))


Thanks:
(1) Aresson,
Go to the top of the page
  Insert nick Quick quote
+Quote Post
post May 23 2014, 18:24:26
Post #3

Аннигилятор пивА
Group Icon
Group: V.I.P
Posts: 46,856
Releases: 14075
From: Koenigsberg - TILZIT
On Forums: 12 years 3 weeks
Thanks: 312352 time(s)
Russian Federation


ЦИТАТА(mindeater @ May 22 2014, 09:05:53) *
раньше шульдинерметал был вроде не? что там сейчас у них, заслушаем-с.)))

все пучком, слушать надо!
Go to the top of the page
  Insert nick Quick quote
+Quote Post
post Jun 11 2014, 11:40:23
Post #4

Schuldinerist
**************
Group: Металариец
Posts: 9,689
Releases: 33
From:
On Forums: 11 years 2 months
Thanks: 5789 time(s)
Russian Federation


На данной ИПихе Инкарнаторы конечно не переплюнули себя на Incarnator - Caeca Superstitio (2013), но и в грязь лицом не ударили. Слушать стоит хотя бы ради культовой Extreme Aggression, сыгранной близко к оригиналу.
8-9/10
Go to the top of the page
  Insert nick Quick quote
+Quote Post
post Oct 12 2017, 00:58:23
Post #5

...Only Death Is Real...
**************
Group: Металариец
Posts: 2,626
Releases: 15
On Forums: 7 years 11 months
Thanks: 1615 time(s)
Russian Federation


Register


Thanks:
(1) Aresson,
Go to the top of the page
  Insert nick Quick quote
+Quote Post
post Oct 12 2017, 09:20:41
Post #6

Котеги! Нравяцо котеги?
**************
Group: Металариец
Posts: 4,612
Releases: 0
From: Терра Инкогнита
On Forums: 8 years 3 weeks
Thanks: 1554 time(s)
Russian Federation


Этого года альбом дико втащил, надо бы и этот при случае слухануть
Go to the top of the page
  Insert nick Quick quote
+Quote Post

Reply to this topicStart new topic
1 User(s) are reading this topic (1 Guests and 0 Anonymous Users)
0 Members:

 



- Lo-Fi Version Support form
Copyrights and abuse reports form
Time is now: 23rd June 2018 - 01:46:00