Welcome Guest ( Log In | Register )

> Elegy - Better Than Bells [demo] (1987), Progressive Power Metal (D)
post May 22 2014, 12:02:10
Post #1

Подвал
**************
Group: Металариец
Posts: 11,779
Releases: 6654
From: Far East (Khabarovsk)
On Forums: 9 years 3 weeks
Thanks: 60311 time(s)
Russian Federation


(IMG:http://metalarea.org/images/audiocovers/2014_May/acov_tid224210_thumb.jpg)

*Artist: Elegy
*Album: Better Than Bells [demo]
*Year: 1987
*Genre: Progressive Power Metal
*Country: Netherlands (IMG:http://metalarea.org/forum/style_images/flags/Netherlands.png)
*Format: mp3@CBR320kbps
*Size: 59MB

Tracklist:
1. Better Than Bells 05:55
2. Dive Into The Deep 06:45
3. Mass Hysteria 06:25
4. Suffer By Comparison 02:51
5. Matricide 06:00
******************************
Total playing time: 27:56

Technical info
(IMG:http://metalarea.org/images/spectrogram/2014_May/9378a194ebf0c9c076f111355991e8f3.png)
Input File: 01-Better Than Bells.mp3
Channels : 2
Sample Rate : 44100
Precision : 16-bit
Duration : 00:05:54.09 = 15615457 samples = 26556.9 CDDA sectors
File Size : 14.2M
Bit Rate : 320k
Sample Encoding: MPEG audio (layer I, II or III)
Comments :
Title=Better Than Bells
Artist=Elegy
Album=Better Than Bells
Tracknumber=01
Year=1987
Genre=Metal



Register


Вернуться к началу страницы
  Insert nick Quick quote
+Цитировать сообщение
 
Создать новую тему
Replies (1 - 1)
post Jan 13 2018, 08:57:12
Post #2

Going home. Flying high.
**************
Group: Металариец
Posts: 11,961
Releases: 0
From: The Land of Shadows
On Forums: 11 years 6 months
Thanks: 15663 time(s)
Russian Federation


from web
Register


Thanks:
Вернуться к началу страницы
  Insert nick Quick quote
+Цитировать сообщение

ОтветитьСоздать новую тему
1 User(s) are reading this topic (1 Guests and 0 Anonymous Users)
0 Members:

 



- Lo-Fi Version Support form
Copyrights and abuse reports form
Time is now: 19th February 2018 - 08:58:14