Welcome Guest ( Log In | Register )

> Hocculta - Warning Games (1984), Heavy/Speed Metal
post Jun 1 2014, 10:51:25
Post #1

Подвал
**************
Group: Металариец
Posts: 15,428
Releases: 8791
From: Far East (Khabarovsk)
On Forums: 11 years 9 months
Thanks: 93897 time(s)
Russian Federation


(IMG:http://metalarea.org/images/audiocovers/2014_Jun/acov_tid224814_thumb.jpeg)

*Artist: Hocculta
*Album: Warning Games
*Year: 1984
*Genre: Heavy/Speed Metal
*Country: Italy (IMG:http://metalarea.org/forum/style_images/flags/Italy.png)
*Format: mp3@CBR320kbps
*Size: 82MB

Tracklist:
1. We'll Play Again / Owner Of The Earth 07:43
2. Total Confusion 04:33
3. Dream Of Death 05:27
4. Warning Games 04:07
5. Entity 03:56
6. We Give The Power 05:51
7. Witches' Chant 05:06
******************************
Total playing time: 36:43

Extended info
Remastered and released on CD in 2005 by A&R Productions.


Technical info
(IMG:http://metalarea.org/images/spectrogram/2014_Jun/55df961b46b3b9effef09d51de1bd492.png)
Input File: 02-Total Confusion.mp3
Channels : 2
Sample Rate : 44100
Precision : 16-bit
Duration : 00:04:33.35 = 12054603 samples = 20501 CDDA sectors
File Size : 10.9M
Bit Rate : 320k
Sample Encoding: MPEG audio (layer I, II or III)
Comments :
Title=Total Confusion
Artist=Hocculta
Album=Warning Games
Tracknumber=2
Year=1984
Genre=9



Register


Go to the top of the page
  Insert nick Quick quote
+Quote Post
 
Start new topic
Replies (1 - 2)
post Jul 11 2019, 05:45:23
Post #2

Going home. Flying high.
**************
Group: Металариец
Posts: 13,055
Releases: 0
From: The Land of Shadows
On Forums: 14 years 3 months
Thanks: 25381 time(s)
Russian Federation


same bitrate from web
Register


Thanks:
Go to the top of the page
  Insert nick Quick quote
+Quote Post
post Jul 12 2019, 11:28:21
Post #3

South Of Heaven /адепт ВУДУ
**************
Group: Металариец
Posts: 13,960
Releases: 9
On Forums: 10 years 7 months
Thanks: 5514 time(s)
Unknown


Хороший альбом.
Go to the top of the page
  Insert nick Quick quote
+Quote Post

Reply to this topicStart new topic
1 User(s) are reading this topic (1 Guests and 0 Anonymous Users)
0 Members:

 



- Lo-Fi Version Support form
Copyrights and abuse reports form
Time is now: 25th November 2020 - 14:29:02