Welcome Guest ( Log In | Register )

> Advent Of The Sun - Advent Of The Sun [ep] (2013), Progressive/Power Metal
post Jun 4 2014, 01:11:38
Post #1

Правь статус, ####!111
**************
Group: Металариец
Posts: 22,289
Releases: 15430
From: Г.Харьков
On Forums: 8 years 1 month
Thanks: 282366 time(s)
Unknown


(IMG:http://metalarea.org/images/audiocovers/2014_Jun/acov_tid224983_thumb.jpg)

*Artist: Advent Of The Sun
*Album: Advent Of The Sun [ep]
*Year: 2013
*Genre: Progressive/Power Metal
*Country: United States (IMG:http://metalarea.org/forum/style_images/flags/United%20States.png)
*Format: mp3@CBR320kbps
*Size: 74MB

Tracklist:
1. Exogenesis 03:47 instrumental
2. Interwined 05:56
3. Suspend Your Disbelief 04:24
4. Redshift 05:38 instrumental
5. Haunted 05:17
6. Tragedy 08:47
******************************
Total playing time: 33:49

Preview 1

Technical info
(IMG:http://metalarea.org/images/spectrogram/2014_Jun/9bd743e79e27e4b56710ef0684f5bb5e.png)
Input File: 02. Interwined.mp3
Channels : 2
Sample Rate : 44100
Precision : 16-bit
Duration : 00:05:56.09 = 15703349 samples = 26706.4 CDDA sectors
File Size : 14.2M
Bit Rate : 320k
Sample Encoding: MPEG audio (layer I, II or III)
Comments :
Title=Interwined
Artist=Advent of the Sun
Album=Advent of the Sun
Tracknumber=2
Year=2013
Genre=Power Metal



Register


Go to the top of the page
  Insert nick Quick quote
+Quote Post
 
Start new topic
Replies (1 - 5)
post Jun 7 2014, 11:35:34
Post #2

Перевозчик
**************
Group: Металариец
Posts: 3,180
Releases: 0
On Forums: 12 years 4 days
Thanks: 713 time(s)
Russian Federation




Thanks:
(1) Yarri,
Go to the top of the page
  Insert nick Quick quote
+Quote Post
post Jun 9 2014, 10:25:26
Post #3

21st Century Schizoid Man
**************
Group: Металариец
Posts: 6,532
Releases: 80
From: Moscow
On Forums: 12 years 2 months
Thanks: 5390 time(s)
Russian Federation


Кайфовая эпиха!
Go to the top of the page
  Insert nick Quick quote
+Quote Post
post Jun 9 2014, 11:16:07
Post #4

21st Century Schizoid Man
**************
Group: Металариец
Posts: 6,532
Releases: 80
From: Moscow
On Forums: 12 years 2 months
Thanks: 5390 time(s)
Russian Federation




Go to the top of the page
  Insert nick Quick quote
+Quote Post
post Jun 30 2020, 20:02:41
Post #5

Четыре Литра
****
Group: Металариец
Posts: 310
Releases: 0
On Forums: 11 months 2 weeks
Thanks: 2 time(s)
Argentina


link caido
Go to the top of the page
  Insert nick Quick quote
+Quote Post
post Jul 5 2020, 08:04:34
Post #6

Добрый
**************
Group: Металариец
Posts: 4,001
Releases: 0
On Forums: 2 years 1 week
Thanks: 6801 time(s)
Russian Federation


75 mb/320 kbps
Register


Thanks:
Go to the top of the page
  Insert nick Quick quote
+Quote Post

Reply to this topicStart new topic
1 User(s) are reading this topic (1 Guests and 0 Anonymous Users)
0 Members:

 



- Lo-Fi Version Support form
Copyrights and abuse reports form
Time is now: 8th July 2020 - 22:24:07