Welcome Guest ( Log In | Register )

> Warpstone - Into The Phantasmancer Celestial Castle (2014), Progressive Melodic Black/Death Metal
post Jun 15 2014, 21:40:56
Post #1

Правь статус, ####!111
**************
Group: Металариец
Posts: 13,381
Releases: 9428
From: Г.Харьков
On Forums: 6 years 1 month
Thanks: 153935 time(s)
Unknown


(IMG:http://metalarea.org/images/audiocovers/2014_Jun/acov_tid225795_thumb.jpg)

*Artist: Warpstone
*Album: Into The Phantasmancer Celestial Castle
*Year: 2014
*Genre: Progressive Melodic Black/Death Metal
*Country: France (IMG:http://metalarea.org/forum/style_images/flags/France.png)
*Format: mp3@CBR320kbps
*Size: 100MB

Tracklist:
1. The March 04:13
2. Graveyard Addicted 05:23
3. Into the Phantasmancer Celestial Castle 06:10
4. Orange Moon 05:23
5. Interlude 01:59 (instrumental)
6. Malevolent Intent 03:13
7. The Virtuous and the Goatlord 03:30
8. Emerald Anthem 03:23
9. The Sleepwalker 04:08
******************************
Total playing time: 37:22



Technical info
(IMG:http://metalarea.org/images/spectrogram/2014_Jun/9d917a01a3bda0ee1da53fe8228efe4b.png)
Input File: Warpstone - Into the Phantasmancer Celestial Castle - 02 Graveyard Addicted.mp3
Channels : 2
Sample Rate : 44100
Precision : 16-bit
Duration : 00:04:08.24 = 10947296 samples = 18617.9 CDDA sectors
File Size : 10.2M
Bit Rate : 329k
Sample Encoding: MPEG audio (layer I, II or III)
Comments :
Title=Graveyard Addicted
Artist=Warpstone
Album=Into the Phantasmancer Celestial Castle
Tracknumber=2
Year=2014



Register


Go to the top of the page
  Insert nick Quick quote
+Quote Post
 
Start new topic
Replies (1 - 2)
post Feb 14 2018, 10:15:33
Post #2

Маньяк
**********
Group: Металариец
Posts: 1,449
Releases: 0
From: MoscoW
On Forums: 11 years 6 months
Thanks: 1083 time(s)
Russian Federation


Перезалейте, пожалуйста, в 320kbps!!!
Re-up plizzz...
(IMG:style_emoticons/default/pray.gif) (IMG:style_emoticons/default/pray.gif) (IMG:style_emoticons/default/pray.gif)
Go to the top of the page
  Insert nick Quick quote
+Quote Post
post Feb 14 2018, 22:04:02
Post #3

Девять Литров
*********
Group: Металариец
Posts: 975
Releases: 0
On Forums: 7 years 1 month
Thanks: 413 time(s)
Unknown


QUOTE(satanist666 @ Feb 14 2018, 09:15:33) *
Перезалейте, пожалуйста, в 320kbps!!!
Re-up plizzz...
(IMG:style_emoticons/default/pray.gif) (IMG:style_emoticons/default/pray.gif) (IMG:style_emoticons/default/pray.gif)


^ This (IMG:style_emoticons/default/smile4.gif)
Go to the top of the page
  Insert nick Quick quote
+Quote Post

Reply to this topicStart new topic
2 User(s) are reading this topic (2 Guests and 0 Anonymous Users)
0 Members:

 



- Lo-Fi Version Support form
Copyrights and abuse reports form
Time is now: 23rd June 2018 - 07:40:17