Welcome Guest ( Log In | Register )

 
Reply to this topicStart new topic
> Mass Disorder - The Way To Our End [ep] (2014), Thrash/Groove Metal
post Jun 15 2014, 22:16:57
Post #1

Правь статус, ####!111
**************
Group: Металариец
Posts: 18,588
Releases: 12581
From: Г.Харьков
On Forums: 7 years 4 months
Thanks: 213211 time(s)
Unknown


(IMG:http://metalarea.org/images/audiocovers/2014_Jun/acov_tid225796_thumb.jpg)

*Artist: Mass Disorder
*Album: The Way To Our End [ep]
*Year: 2014
*Genre: Thrash/Groove Metal
*Country: Portugal (IMG:http://metalarea.org/forum/style_images/flags/Portugal.png)
*Format: mp3@CBR320kbps
*Size: 62MB

Tracklist:
1. The Way to Our End 04:47
2. Powerdrill 03:56
3. Dead Man Walking 06:15
4. Kingdom of Submission 06:32
5. Human Trash 05:01
******************************
Total playing time: 26:31



Technical info
(IMG:http://metalarea.org/images/spectrogram/2014_Jun/a9b032509307eab34490a5efd62c7f36.png)
Input File: Mass Disorder - The Way To Our End - 02 Powerdrill.mp3
Channels : 2
Sample Rate : 44100
Precision : 16-bit
Duration : 00:03:57.03 = 10453067 samples = 17777.3 CDDA sectors
File Size : 9.66M
Bit Rate : 326k
Sample Encoding: MPEG audio (layer I, II or III)
Comments :
Title=Powerdrill
Artist=Mass Disorder
Album=The Way To Our End
Tracknumber=2
Year=2014



Register


Go to the top of the page
  Insert nick Quick quote
+Quote Post

Reply to this topicStart new topic
1 User(s) are reading this topic (1 Guests and 0 Anonymous Users)
0 Members:

 



- Lo-Fi Version Support form
Copyrights and abuse reports form
Time is now: 21st September 2019 - 16:28:47