Welcome Guest ( Log In | Register )

 
Reply to this topicStart new topic
> Winterblood - Scherbengericht [single] (2014), Atmospheric/Post-Black Metal (D9)
post Jun 15 2014, 22:51:48
Post #1

Шесть Литров
******
Group: Металариец
Posts: 639
Releases: 10
On Forums: 10 years 8 months
Thanks: 162 time(s)
Germany


(IMG:http://metalarea.org/images/audiocovers/2014_Jun/acov_tid225797_thumb.JPG)

*Artist: Winterblood
*Album: Scherbengericht (Ytterligare ett steg närmare total jävla utfrysning - Shining Cover)[single]
*Year: 2014
*Genre: Atmospheric/Post Black Metal
*Country: Germany (IMG:http://metalarea.org/forum/style_images/flags/Germany.png)
*Format: mp3@CBR320kbps
*Size: 14MB

Tracklist:
01. Scherbengericht (Ytterligare ett steg närmare total jävla utfrysning - Shining Cover)

******************************
Total playing time: 6:31

(IMG:http://metalarea.org/images/youtube.png)



Extended info




Technical info
(IMG:http://metalarea.org/images/spectrogram/2014_Jun/c5bb25f1bdc2519746b3e389efb8844b.png)
Input File: Winterblood - Scherbengericht (Ytterligare ett steg närmare total jävla utfrysning - Shining Cover).mp3
Channels : 2
Sample Rate : 44100
Precision : 16-bit
Duration : 00:06:31.29 = 17255757 samples = 29346.5 CDDA sectors
File Size : 15.7M
Bit Rate : 320k
Sample Encoding: MPEG audio (layer I, II or III)
Comments :
Title=Scherbengericht (Ytterligare ett steg närmare total jävla utfrysning - Shining Cover)
Artist=Winterblood
Album=Scherbengericht
Tracknumber=1
Year=2014
Genre=Black Metal



Register


This post has been edited by deathic: Jun 16 2014, 00:33:44


Go to the top of the page
  Insert nick Quick quote
+Quote Post

Reply to this topicStart new topic
2 User(s) are reading this topic (2 Guests and 0 Anonymous Users)
0 Members:

 



- Lo-Fi Version Support form
Copyrights and abuse reports form
Time is now: 21st September 2019 - 01:55:50