Welcome Guest ( Log In | Register )

> Night Fog - Beyond The Gravestones (2014), Black/Death/Doom Metal (D4)
post Jun 16 2014, 14:08:00
Post #1

Serial Uploader
Group Icon
Group: V.I.P
Posts: 37,532
Releases: 35706
From: Lithuania
On Forums: 12 years 10 months
Thanks: 431418 time(s)
Lithuania


(IMG:https://metalarea.org/images/audiocovers/2014_Jun/acov_tid225848_thumb.jpg)

*Artist: Night Fog
*Album: Beyond The Gravestones
*Year: 2014
*Genre: Black/Death/Doom Metal
*Country: United States (IMG:https://metalarea.org/forum/style_images/flags/United%20States.png)
*Format: mp3@CBR320kbps
*Size: 133MB

Tracklist:
01. The Coven 17:14
02. Warlord 14:30
03. Wicked Lady 05:38
04. Zyclone B 03:50
05. Funeral 06:09
06. Welcome To The End 10:40
******************************
Total playing time: 58:01



Technical info
(IMG:https://metalarea.org/images/spectrogram/2014_Jun/a86f04a789f3f4c49542291189158246.png)
Input File: Night Fog - Beyond The Gravestones - 05 Funeral.mp3
Channels : 2
Sample Rate : 44100
Precision : 16-bit
Duration : 00:06:10.01 = 16317265 samples = 27750.5 CDDA sectors
File Size : 14.9M
Bit Rate : 323k
Sample Encoding: MPEG audio (layer I, II or III)
Comments :
Title=Funeral
Artist=Night Fog
Album=Beyond The Gravestones
Tracknumber=5
Year=2014



Register


Go to the top of the page
  Insert nick Quick quote
+Quote Post
 
Start new topic
Replies (1 - 2)
post Jun 16 2014, 16:02:16
Post #2

Два Литра
**
Group: Завсегдатай
Posts: 151
Releases: 0
On Forums: 13 years 3 months
Thanks: 17 time(s)
Russian Federation


Какая-то репетиция школьного ансамбля...


Thanks:
(1) AHBAnep,
Go to the top of the page
  Insert nick Quick quote
+Quote Post
post Jul 17 2014, 15:15:32
Post #3

Правь статус, ####!111
**************
Group: Металариец
Posts: 2,137
Releases: 258
From: 93 banlieue nord hardcore si si
On Forums: 12 years 11 months
Thanks: 3678 time(s)
France


(IMG:http://pietrospeaks.files.wordpress.com/2013/09/frabz-what-the-fuck-12f2ab.jpg)
Go to the top of the page
  Insert nick Quick quote
+Quote Post

Reply to this topicStart new topic
2 User(s) are reading this topic (2 Guests and 0 Anonymous Users)
0 Members:

 



- Lo-Fi Version Support form
Copyrights and abuse reports form
Time is now: 21st April 2021 - 14:30:47