Welcome Guest ( Log In | Register )

> Syphilic - Toylets 'R' Us (2014), Brutal Death Metal (D5)
post Jun 28 2014, 03:21:38
Post #1

Правь статус, ####!111
**************
Group: Металариец
Posts: 18,126
Releases: 12260
From: Г.Харьков
On Forums: 7 years 3 months
Thanks: 206568 time(s)
Unknown


(IMG:http://metalarea.org/images/audiocovers/2014_Jun/acov_tid226451_thumb.jpg)

*Artist: Syphilic
*Album: Toylets 'R' Us
*Year: 2014
*Genre: Brutal Death Metal
*Country: United States (IMG:http://metalarea.org/forum/style_images/flags/United%20States.png)
*Format: mp3@CBR320kbps
*Size: 99MB

Tracklist:
1. At Population Yogurt
2. Blinded By Balloons
3. Chiasse Injection
4. Athiesman
5. BAC100
6. Carnival Of Cardinals
7. Alterboy Alternative
8. Beer Hats & Baseball Bats
9. Clergy Splergy
******************************
Total playing time: 41:33



Technical info
(IMG:http://metalarea.org/images/spectrogram/2014_Jun/01a31871e63809864819827cab890263.png)
Input File: 03 Chiasse Injection.mp3
Channels : 2
Sample Rate : 44100
Precision : 16-bit
Duration : 00:03:25.06 = 9043014 samples = 15379.3 CDDA sectors
File Size : 8.50M
Bit Rate : 332k
Sample Encoding: MPEG audio (layer I, II or III)
Comments :
Title=Chiasse Injection
Artist=Syphilic
Album=Toylets 'R' Us
Tracknumber=3
Year=2014
Genre=Death Metal



Register


Go to the top of the page
  Insert nick Quick quote
+Quote Post
 
Start new topic
Replies (1 - 7)
post Jun 28 2014, 04:05:51
Post #2

эпистолярный садист
**************
Group: Металариец
Posts: 2,459
Releases: 1
From: Den Store Ruin
On Forums: 11 years 2 months
Thanks: 5559 time(s)
Ukraine


Отдельно порадовала обложка. (IMG:style_emoticons/default/crazy.gif)


Thanks:
Go to the top of the page
  Insert nick Quick quote
+Quote Post
post Jun 28 2014, 06:26:24
Post #3

Социопат.Маргинал. Мизантроп.Нигилист. Перверзный нарциссист.
**************
Group: Металариец
Posts: 5,537
Releases: 667
From: Город-герой Ленинград
On Forums: 8 years 6 months
Thanks: 6203 time(s)
Russian Federation


Однозначно.
З.Ы да у них все облоги прикольные
Register
.
Go to the top of the page
  Insert nick Quick quote
+Quote Post
post Jun 28 2014, 07:05:31
Post #4

И Ван Дамм По Делам Вашим!
**************
Group: Металариец
Posts: 17,441
Releases: 26
On Forums: 11 years 1 month
Thanks: 9324 time(s)
Honduras


ЦИТАТА(waldemardr @ Jun 28 2014, 06:05:51) *
Отдельно порадовала обложка. (IMG:style_emoticons/default/crazy.gif)

Как говорится-от всей души. (IMG:style_emoticons/default/1488.gif)


Thanks:
Go to the top of the page
  Insert nick Quick quote
+Quote Post
post Jun 28 2014, 07:52:19
Post #5

ME[ta]LLOMAN
**************
Group: Металариец
Posts: 4,915
Releases: 3
From: Avdeyevka
On Forums: 13 years 4 months
Thanks: 1844 time(s)
Honduras


только обложка и порадовала.. как-то не выразительно исполнили


Thanks:
(1) drbutcher,
Go to the top of the page
  Insert nick Quick quote
+Quote Post
post Jun 28 2014, 08:42:34
Post #6

Necromancer
Group Icon
Group: Curation team
Posts: 10,908
Releases: 271
From: Зеленоград
On Forums: 12 years 10 months
Thanks: 8750 time(s)
Russian Federation


ЦИТАТА(waldemardr @ Jun 28 2014, 07:05:51) *
Отдельно порадовала обложка. (IMG:style_emoticons/default/crazy.gif)

О, да. Тем более, что эта тема особенно остро поднимается и обсуждается сейчас.
Go to the top of the page
  Insert nick Quick quote
+Quote Post
post Jun 28 2014, 09:56:37
Post #7

Маньяк
**********
Group: Металариец
Posts: 1,211
Releases: 1
From: Беларусь
On Forums: 11 years 7 months
Thanks: 473 time(s)
Russian Federation


ЦИТАТА(KVRT @ Jun 28 2014, 09:52:19) *
только обложка и порадовала.. как-то не выразительно исполнили
Вообще-то это one-man project.
Go to the top of the page
  Insert nick Quick quote
+Quote Post
post Mar 4 2018, 21:53:04
Post #8

Правь статус, ####!111
**************
Group: Металариец
Posts: 6,625
Releases: 0
From: Москва
On Forums: 10 years 2 weeks
Thanks: 12782 time(s)
Russian Federation


Register
320


Thanks:
Go to the top of the page
  Insert nick Quick quote
+Quote Post

Reply to this topicStart new topic
2 User(s) are reading this topic (2 Guests and 0 Anonymous Users)
0 Members:

 



- Lo-Fi Version Support form
Copyrights and abuse reports form
Time is now: 19th August 2019 - 07:18:40