Welcome Guest ( Log In | Register )

> Embalmed - The Fatal Desilusion [demo] (1995), Black/Death Metal (D14)
post Jun 30 2014, 11:28:45
Post #1

Serial Uploader
Group Icon
Group: V.I.P
Posts: 37,532
Releases: 35706
From: Lithuania
On Forums: 12 years 9 months
Thanks: 431134 time(s)
Lithuania


(IMG:http://metalarea.org/images/audiocovers/2014_Jun/acov_tid226586_thumb.jpg)

*Artist: Embalmed
*Album: The Fatal Desilusion [demo]
*Year: 1995
*Genre: Black/Death Metal
*Country: Slovakia (IMG:http://metalarea.org/forum/style_images/flags/Slovakia.png)
*Format: mp3@CBR320kbps
*Size: 30MB

Tracklist:
01. Demonination I. 02:26
02. Demonination II. 03:29
03. Infatuation! 02:30
04. Pulp Fiction 01:52
05. Legion Of Doom 02:55
******************************
Total playing time: 13:12

Technical info
(IMG:http://metalarea.org/images/spectrogram/2014_Jun/6d663b53b0d461fb5ba7f107b1c761ea.png)
Input File: 04. Pulp Fiction.mp3
Channels : 2
Sample Rate : 44100
Precision : 16-bit
Duration : 00:01:52.08 = 4942640 samples = 8405.85 CDDA sectors
File Size : 4.59M
Bit Rate : 328k
Sample Encoding: MPEG audio (layer I, II or III)
Comments :
Title=Pulp Fiction
Artist=Embalmed
Album=The Fatal Desilusion
Tracknumber=04
Year=1995
Genre=Black/Death Metal



Register


Go to the top of the page
  Insert nick Quick quote
+Quote Post
 
Start new topic
Replies (1 - 1)
post Jan 16 2021, 16:46:23
Post #2

Подвал
**************
Group: Металариец
Posts: 15,806
Releases: 9038
From: Far East (Khabarovsk)
On Forums: 12 years 1 month
Thanks: 99970 time(s)
Russian Federation


new link:
Register


Thanks:
Go to the top of the page
  Insert nick Quick quote
+Quote Post

Reply to this topicStart new topic
1 User(s) are reading this topic (1 Guests and 0 Anonymous Users)
0 Members:

 



- Lo-Fi Version Support form
Copyrights and abuse reports form
Time is now: 8th March 2021 - 16:36:25