Welcome Guest ( Log In | Register )

> Mithridium - Hope Dies Last (2014), Melodic Thrash Metal/Metalcore
post Jul 10 2014, 15:46:28
Post #1

Правь статус, ####!111
**************
Group: Металариец
Posts: 25,244
Releases: 17988
From: Г.Харьков
On Forums: 8 years 9 months
Thanks: 352412 time(s)
Unknown


(IMG:http://metalarea.org/images/audiocovers/2014_Jul/acov_tid227150_thumb.jpg)

*Artist: Mithridium
*Album: Hope Dies Last
*Year: 2014
*Genre: Melodic Thrash Metal/Metalcore
*Country: United States (IMG:http://metalarea.org/forum/style_images/flags/United%20States.png)
*Format: mp3@CBR320kbps
*Size: 139MB

Tracklist:
01.Convergence
02.Hope Dies Last
03.Before The Dawn
04.The Sharp Tongue That Cut The Righteous Throat
05.Abaddon's Kiss
06.Middle Of Relinquish
07.Endlessly
08.Vulture
09.The Architects (Shartstorm)
10.Psychomanteum
******************************
Total playing time: 1:04:47



Technical info
(IMG:http://metalarea.org/images/spectrogram/2014_Jul/9e63ae1e8c4ea66a1a85cd1dd8659b73.png)
Input File: 03 - Before the Dawn.mp3
Channels : 2
Sample Rate : 44100
Precision : 16-bit
Duration : 00:07:04.61 = 18725345 samples = 31845.8 CDDA sectors
File Size : 17.0M
Bit Rate : 321k
Sample Encoding: MPEG audio (layer I, II or III)
Comments :
Title=Before the Dawn
Artist=Mithridium
Album=Hope Dies Last
Tracknumber=3/10
Year=2014
Genre=Thrash Metal
Discnumber=1/1



Register


Go to the top of the page
  Insert nick Quick quote
+Quote Post
 
Start new topic
Replies (1 - 2)
post Jul 11 2014, 14:11:20
Post #2

Все люди - черви.
**********
Group: Металариец
Posts: 1,185
Releases: 151
From: Пхёнъян, Северная Корея
On Forums: 8 years 2 months
Thanks: 4702 time(s)
North Korea


И где трэш-метал? (IMG:style_emoticons/default/21.gif) Галимый до ужаса металкор, еще и записанный через унитаз. (IMG:style_emoticons/default/22.gif)
Go to the top of the page
  Insert nick Quick quote
+Quote Post
post Jan 16 2021, 18:02:07
Post #3

Четыре Литра
****
Group: Металариец
Posts: 335
Releases: 4
From: Суворов
On Forums: 3 years 1 month
Thanks: 57 time(s)
Russian Federation


Эх... Жаль, что мимо
Go to the top of the page
  Insert nick Quick quote
+Quote Post

Reply to this topicStart new topic
1 User(s) are reading this topic (1 Guests and 0 Anonymous Users)
0 Members:

 



- Lo-Fi Version Support form
Copyrights and abuse reports form
Time is now: 8th March 2021 - 16:25:31