Welcome Guest ( Log In | Register )

> Gutrot & Syphilic - Portopotty Pervert [split] (2014), Brutal Death Metal/Grindcore | Brutal Death Metal (D6)
post Jul 10 2014, 16:47:26
Post #1

Социопат.Маргинал. Мизантроп.Нигилист. Перверзный нарциссист.
**************
Group: Металариец
Posts: 5,537
Releases: 667
From: Город-герой Ленинград
On Forums: 8 years 6 months
Thanks: 6203 time(s)
Russian Federation


(IMG:https://metalarea.org/images/audiocovers/2014_Jul/acov_tid227153_thumb.jpg)

*Artist: Gutrot & Syphilic
*Album: Portopotty Pervert [split]
*Year: 2014
*Genre: Brutal Death Metal/Grindcore | Brutal Death Metal
*Country: United States (IMG:https://metalarea.org/forum/style_images/flags/United%20States.png) | United States (IMG:https://metalarea.org/forum/style_images/flags/United%20States.png)
*Format: mp3@CBR320kbps
*Size: 46MB

Tracklist:
Gutrot:
1. Government Cheese Pocket Pussy
2. Research DNA
3. Snorkeling In Diarrhea
Syphilic:
4. Toyletroll
******************************
Total playing time: 19:58



Technical info
(IMG:https://metalarea.org/images/spectrogram/2014_Jul/48c1b57581991f8c7f88ce08cd7747bb.png)
Input File: 1. Gutrot - Government Cheese Pocket Pussy.mp3
Channels : 2
Sample Rate : 44100
Precision : 16-bit
Duration : 00:03:13.22 = 8521090 samples = 14491.6 CDDA sectors
File Size : 7.94M
Bit Rate : 329k
Sample Encoding: MPEG audio (layer I, II or III)
Comments :
Title=Gutrot - Government Cheese Pocket Pussy
Artist=Syphilic
Album=Portopotty Pervert
Tracknumber=1
Year=2014



Register


Go to the top of the page
  Insert nick Quick quote
+Quote Post
 
Start new topic
Replies (1 - 1)
post Mar 4 2018, 21:36:52
Post #2

Правь статус, ####!111
**************
Group: Металариец
Posts: 6,625
Releases: 0
From: Москва
On Forums: 10 years 2 weeks
Thanks: 12785 time(s)
Russian Federation


Register
320


Thanks:
Go to the top of the page
  Insert nick Quick quote
+Quote Post

Reply to this topicStart new topic
2 User(s) are reading this topic (2 Guests and 0 Anonymous Users)
0 Members:

 



- Lo-Fi Version Support form
Copyrights and abuse reports form
Time is now: 19th August 2019 - 19:12:21