Welcome Guest ( Log In | Register )

> Grind Zero - Mass Distraction (2014), Death/Thrash Metal
post Jul 14 2014, 04:45:47
Post #1

Правь статус, ####!111
**************
Group: Металариец
Posts: 17,502
Releases: 11866
From: Г.Харьков
On Forums: 7 years 1 month
Thanks: 198583 time(s)
Unknown


(IMG:http://metalarea.org/images/audiocovers/2014_Jul/acov_tid227280_thumb.jpg)

*Artist: Grind Zero
*Album: Mass Distraction
*Year: 2014
*Genre: Death/Thrash Metal
*Country: Italy (IMG:http://metalarea.org/forum/style_images/flags/Italy.png)
*Format: mp3@CBR320kbps
*Size: 84MB

Tracklist:
1. Blood Soaked Ground 04:16
2. Dislocation 04:24
3. War for War 05:09
4. Mass Distraction 03:32
5. Treacherous Betrayer 04:38
6. The Black River 04:25
7. Modern Slavery 03:23
8. Fucked Up Nation 04:41
9. Extra Life Disease 04:24
******************************
Total playing time: 38:52



Extended info


Technical info
(IMG:http://metalarea.org/images/spectrogram/2014_Jul/32a38f30c6294819c5f62d8fe379f22f.png)
Input File: 03 - War for War.mp3
Channels : 2
Sample Rate : 44100
Precision : 16-bit
Duration : 00:05:09.03 = 13628399 samples = 23177.5 CDDA sectors
File Size : 12.5M
Bit Rate : 322k
Sample Encoding: MPEG audio (layer I, II or III)
Comments :
Title=War for War
Artist=Grind Zero
Album=Mass Distraction
Tracknumber=3/9
Year=2014
Genre=Thrash Metal
Discnumber=1/1



Register


Go to the top of the page
  Insert nick Quick quote
+Quote Post
 
Start new topic
Replies (1 - 1)
post Jun 12 2019, 03:16:41
Post #2

Маньяк
**********
Group: Металариец
Posts: 1,007
Releases: 1
From: ecuador
On Forums: 10 years 11 months
Thanks: 439 time(s)
Ecuador


Register
Go to the top of the page
  Insert nick Quick quote
+Quote Post

Reply to this topicStart new topic
2 User(s) are reading this topic (2 Guests and 0 Anonymous Users)
0 Members:

 



- Lo-Fi Version Support form
Copyrights and abuse reports form
Time is now: 27th June 2019 - 07:12:56