Welcome Guest ( Log In | Register )

> Skaur - Gravoel [ep] (2014), Black Metal (D)
post Jul 16 2014, 11:51:09
Post #1

the faceless one
Group Icon
Group: S-moderation team
Posts: 9,239
Releases: 1893
On Forums: 11 years 3 months
Thanks: 111878 time(s)
Russian Federation


(IMG:http://metalarea.org/images/audiocovers/2014_Jul/acov_tid227412_thumb.jpg)

*Artist: Skaur
*Album: Gravoel [ep]
*Year: 2014
*Genre: Black Metal
*Country: Norway (IMG:http://metalarea.org/forum/style_images/flags/Norway.png)
*Format: mp3@VBR236kbps
*Size: 70MB

Tracklist:
1. Bryllup I Dødsriget
2. Gravoel
3. Ei Hymne Tell Dauen
******************************
Total playing time: 40:03

(IMG:http://metalarea.org/images/youtube.png)
(IMG:http://metalarea.org/images/youtube.png)
(IMG:http://metalarea.org/images/youtube.png)

Extended info
CD-Rip

Digipak released by Darker than Black.

Обжигающий холодный и мелодичный Norsk Arisk Black Metal. Сильный материал - не подкачали мрачные скандинавы! Для тех, кому нравится Windir.

Выкладывается эксклюзивно для портала.

БлагодАРРГГХХ за предоставленный материал камраду Zoretaan [BFM, Rutracker]


Technical info
(IMG:http://metalarea.org/images/spectrogram/2014_Jul/df522458b17fea8284b25faff32a957b.png)
Input File: 02 - Track 2.mp3
Channels : 2
Sample Rate : 44100
Precision : 16-bit
Duration : 00:09:00.19 = 23822203 samples = 40514 CDDA sectors
File Size : 15.7M
Bit Rate : 232k
Sample Encoding: MPEG audio (layer I, II or III)
Comments :
Title=Track 2
Artist=Skaur
Album=Gravoel
Tracknumber=2/3
Year=2014
Genre=Black Metal



Register


Go to the top of the page
  Insert nick Quick quote
+Quote Post
 
Start new topic
Replies (1 - 7)
post Jul 16 2014, 14:36:24
Post #2

Четыре Литра
****
Group: Металариец
Posts: 310
Releases: 17
On Forums: 6 years 2 months
Thanks: 642 time(s)
Iceland


"Norsk Arisk Black Metal" <> https://s3.amazonaws.com/vice_asset_uploade...02334636spt.jpg (IMG:style_emoticons/default/15.gif)
Go to the top of the page
  Insert nick Quick quote
+Quote Post
post Jul 16 2014, 15:01:51
Post #3

Три Литра
***
Group: Завсегдатай
Posts: 253
Releases: 0
From: Мозырь
On Forums: 10 years 5 months
Thanks: 172 time(s)
Belarus


Ммм... Я смотрю, юродивые подтянулись.

А сабж хорош, как всегда. Меланхолично и красиво. И даже как-то немножко современно. Только вот я бы выпилил совместное чистоголосое песнопение в конце первой композиции: мужской голос как-то недотягивает до более мощного женского.
И да, тэги бы хорошо было бы прописать.
А так - спасибо.


Thanks:
Go to the top of the page
  Insert nick Quick quote
+Quote Post
post Jul 16 2014, 15:21:29
Post #4

antithesis
**************
Group: Металариец
Posts: 2,863
Releases: 32
From: VRN
On Forums: 9 years 5 months
Thanks: 1707 time(s)
Russian Federation


Skaur это тема! (IMG:style_emoticons/default/25.gif)

P.S. ][еP@cе миник, 40 минут)

P.P.S. полноформатничек бы запилили норвежцы, было б в 1,5 раза лучше.


Go to the top of the page
  Insert nick Quick quote
+Quote Post
post Jul 16 2014, 15:32:47
Post #5

а ты попал в даунтаун
**********
Group: Металариец
Posts: 1,249
Releases: 51
From: Москва
On Forums: 10 years 6 months
Thanks: 3470 time(s)
Russian Federation


ЦИТАТА(Kvlt @ 16th July 2014 - 17:36:24) *

Чего ещё не залили-то этот альбом, кстати?
Go to the top of the page
  Insert nick Quick quote
+Quote Post
post Jul 17 2014, 09:18:09
Post #6

Necromancer
Group Icon
Group: Curation team
Posts: 10,962
Releases: 271
From: Зеленоград
On Forums: 13 years 1 month
Thanks: 8793 time(s)
Russian Federation


(IMG:style_emoticons/default/pray.gif) Отлично.
(IMG:style_emoticons/default/true_black.gif) Норвежский чёрный метал, по всем канонам.
Go to the top of the page
  Insert nick Quick quote
+Quote Post
post Jul 30 2014, 13:24:51
Post #7

|ÆVIG|NORRØN|VETR|
***
Group: Завсегдатай
Posts: 289
Releases: 1
From: UnderNorth
On Forums: 12 years 2 months
Thanks: 96 time(s)
Libya


...like Windir? You must be joking. Stupid album.

Windir 100 times better. Norwegian miscarriage.


Thanks:
Go to the top of the page
  Insert nick Quick quote
+Quote Post
post Aug 5 2014, 13:19:04
Post #8

Правь статус, ####!111
**************
Group: Металариец
Posts: 3,125
Releases: 1
From: Рейх
On Forums: 13 years 2 months
Thanks: 866 time(s)
Ukraine


Очень понравилось и девичий вокал тут в тему и звучит это все, как в 90-е.
Go to the top of the page
  Insert nick Quick quote
+Quote Post

Reply to this topicStart new topic
1 User(s) are reading this topic (1 Guests and 0 Anonymous Users)
0 Members:

 



- Lo-Fi Version Support form
Copyrights and abuse reports form
Time is now: 13th November 2019 - 05:01:34