Welcome Guest ( Log In | Register )

> И неформату есть предел.

Рэп/хип-хоп/шансон/поп удаляются. Для них есть свои порталы.

 
Reply to this topicStart new topic
> Narath - Heterodox [ep] (2006), Electronic (D)
post Jul 20 2014, 15:29:57
Post #1

Пять Литров
*****
Group: Металариец
Posts: 499
Releases: 145
From: Питер
On Forums: 14 years 1 month
Thanks: 1805 time(s)
Russian Federation


(IMG:http://metalarea.org/images/audiocovers/2014_Jul/acov_tid227621_thumb.jpg)

*Artist: Narath
*Album: Heterodox [ep]
*Year: 2006
*Genre: Electronic
*Country: Russian Federation (IMG:http://metalarea.org/forum/style_images/flags/Russian%20Federation.png)
*Format: mp3@CBR320kbps
*Size: 40MB

Tracklist:
01. The Zero Heart (Raw Mix)
02. Smells Like Teen Spirit (Nirvana Cover)
03. Heterodox (FL2 Mix)
04. Outerspace VII
******************************
Total playing time: 17:34

Preview 1

Technical info
(IMG:http://metalarea.org/images/spectrogram/2014_Jul/6a6dfd00d1c7de9a39960e6123abb6cf.png)
Input File: 2.Smells Like Teen Spirit (Nirvana Cover).mp3
Channels : 2
Sample Rate : 44100
Precision : 16-bit
Duration : 00:04:44.87 = 12562679 samples = 21365.1 CDDA sectors
File Size : 11.4M
Bit Rate : 320k
Sample Encoding: MPEG audio (layer I, II or III)
Comments :
Title=Smells Like Teen Spirit (Nirvana Cover)
Artist=Narath
Album=Heterodox (EP)
Tracknumber=2
Year=2006
Genre=Electronic



Register


Thanks:
(1) Kazoth,
Go to the top of the page
  Insert nick Quick quote
+Quote Post

Reply to this topicStart new topic
2 User(s) are reading this topic (2 Guests and 0 Anonymous Users)
0 Members:

 



- Lo-Fi Version Support form
Copyrights and abuse reports form
Time is now: 28th February 2020 - 07:03:39