Welcome Guest ( Log In | Register )

> Azathoth Circle - Azathoth Circle [ep] (2014), Progressive/Post Metal
post Jul 23 2014, 14:16:37
Post #1

Vana Peerukott
**************
Group: Металариец
Posts: 3,113
Releases: 239
From: Київ, Україна
On Forums: 13 years 4 months
Thanks: 3054 time(s)
Ukraine


(IMG:http://metalarea.org/images/audiocovers/2014_Jul/acov_tid227748_thumb.jpg)

*Artist: Azathoth Circle
*Album: Azathoth Circle [ep]
*Year: 2014
*Genre: Progressive/Post Metal
*Country: Ukraine (IMG:http://metalarea.org/forum/style_images/flags/Ukraine.png)
*Format: mp3@CBR320kbps
*Size: 51MB

Tracklist:
1. Burning Eye (Final Illusion) 07:16
2. Hidden in Silence 08:18
3. Thrown Fate 06:02
******************************
Total playing time: 21:36




(IMG:http://metalarea.org/images/youtube.png)

Technical info
(IMG:http://metalarea.org/images/spectrogram/2014_Jul/faad82c3a8561af98a1f557d32c6723d.png)
Input File: 01 - Burning Eye (Final Illusion).mp3
Channels : 2
Sample Rate : 44100
Precision : 16-bit
Duration : 00:07:16.99 = 19271435 samples = 32774.5 CDDA sectors
File Size : 17.8M
Bit Rate : 326k
Sample Encoding: MPEG audio (layer I, II or III)
Comments :
Title=Burning Eye (Final Illusion)
Artist=Azathoth Circle
Album=Azathoth Circle [ep]
Tracknumber=01
Year=2014



Register


Go to the top of the page
  Insert nick Quick quote
+Quote Post
 
Start new topic
Replies (1 - 7)
post Jul 24 2014, 06:39:05
Post #2

Ёлд ХеллоВяйне
Group Icon
Group: V.I.P
Posts: 27,444
Releases: 132
From: Питер
On Forums: 12 years 9 months
Thanks: 15467 time(s)
Russian Federation


Красота (IMG:style_emoticons/default/20.gif)
Go to the top of the page
  Insert nick Quick quote
+Quote Post
post Jul 24 2014, 07:36:50
Post #3

Русь Понад Усе!
**************
Group: Металариец
Posts: 4,193
Releases: 15
From: Украина
On Forums: 11 years 11 months
Thanks: 1634 time(s)
Ukraine


Весьма не плохо, дебют отличный !!!
Go to the top of the page
  Insert nick Quick quote
+Quote Post
post Jul 24 2014, 09:45:35
Post #4

Vana Peerukott
**************
Group: Металариец
Posts: 3,113
Releases: 239
From: Київ, Україна
On Forums: 13 years 4 months
Thanks: 3054 time(s)
Ukraine


я вообще наткнулся случайно вчера после обеда, так до вечера по кругу и слушал (IMG:style_emoticons/default/dooo.gif) (IMG:style_emoticons/default/20.gif)
Go to the top of the page
  Insert nick Quick quote
+Quote Post
post Aug 22 2014, 05:56:00
Post #5

Шесть Литров
******
Group: Металариец
Posts: 665
Releases: 1
From: Россия, Санкт-Петербург
On Forums: 11 years 2 months
Thanks: 82 time(s)
Russian Federation


Файл удален. Помогите кто-нибудь)
Go to the top of the page
  Insert nick Quick quote
+Quote Post
post Sep 5 2014, 09:41:14
Post #6

Сектант технодро4чер
**************
Group: Металариец
Posts: 5,448
Releases: 143
From: Тимчасово окупована територія
On Forums: 10 years 11 months
Thanks: 5662 time(s)
Ukraine


ЦИТАТА(J0k3r @ Aug 22 2014, 07:56:00) *
Файл удален. Помогите кто-нибудь)


Register


Register


При всем моем равнодушии к пост- и прог- релиз зацепил. (IMG:style_emoticons/default/20.gif)
Go to the top of the page
  Insert nick Quick quote
+Quote Post
post Sep 8 2014, 16:09:32
Post #7

Vana Peerukott
**************
Group: Металариец
Posts: 3,113
Releases: 239
From: Київ, Україна
On Forums: 13 years 4 months
Thanks: 3054 time(s)
Ukraine


QUOTE(J0k3r @ Aug 22 2014, 07:56:00) *
Файл удален. Помогите кто-нибудь)

уже залили, но и с бандкампа фри даунлоад есле шо (IMG:style_emoticons/default/bye.gif)
Go to the top of the page
  Insert nick Quick quote
+Quote Post
post Nov 2 2014, 13:25:33
Post #8

Правь статус, ####!111
**************
Group: Металариец
Posts: 6,625
Releases: 0
From: Москва
On Forums: 10 years 2 weeks
Thanks: 12772 time(s)
Russian Federation


Register
320


Thanks:
Go to the top of the page
  Insert nick Quick quote
+Quote Post

Reply to this topicStart new topic
1 User(s) are reading this topic (1 Guests and 0 Anonymous Users)
0 Members:

 



- Lo-Fi Version Support form
Copyrights and abuse reports form
Time is now: 17th August 2019 - 19:08:08