Welcome Guest ( Log In | Register )

> 

Здесь релизы с живыми прямыми ссылками на lossless

> Karg - Malstrom (2014), Ambient Black Metal
post Jul 23 2014, 20:41:09
Post #1

Четыре Литра
****
Group: Металариец
Posts: 359
Releases: 131
From: Helvetia
On Forums: 7 years 7 months
Thanks: 2564 time(s)
Switzerland


(IMG:http://metalarea.org/images/audiocovers/2014_Jul/acov_tid227757_thumb.jpg)

*Artist: Karg
*Album: Malstrom
*Year: 2014
*Genre: Ambient Black Metal
*Country: Austria (IMG:http://metalarea.org/forum/style_images/flags/Austria.png)
*Format: mp3@CBR320kbps
*Size: 87MB

Tracklist:
1. Neurasthenie 4:09
2. Malstrom 7:54
3. Katharsis 2:48
4. Dekarnation 6:12
5. Melancholia A.D. 3:50
6. Apnoe 13:20
******************************
Total playing time: 38:13

(IMG:http://metalarea.org/images/youtube.png)

Extended info
Digipak


Technical info
(IMG:http://metalarea.org/images/spectrogram/2014_Jul/adc937da5c7c9146fd43f8b248f7f9e9.png)
Input File: 01-Neurasthenie.mp3
Channels : 2
Sample Rate : 44100
Precision : 16-bit
Duration : 00:04:09.57 = 11006213 samples = 18718 CDDA sectors
File Size : 9.99M
Bit Rate : 320k
Sample Encoding: MPEG audio (layer I, II or III)
Comments :
Title=Neurasthenie
Artist=Karg
Album=Malstrom
Year=2014
Genre=9



Register


This post has been edited by DarkHorde: Sep 2 2014, 13:23:58


Go to the top of the page
  Insert nick Quick quote
+Quote Post
 
Start new topic
Replies (1 - 6)
post Jul 24 2014, 06:35:58
Post #2

Ёлд ХеллоВяйне
Group Icon
Group: V.I.P
Posts: 30,265
Releases: 137
From: Питер
On Forums: 13 years 10 months
Thanks: 18120 time(s)
Russian Federation


Lyrical themes: Aspiration, Depression, Self-Destruction.

Музычка збсь, особенно эмбиент-моменты.


Thanks:
(1) smes,
Go to the top of the page
  Insert nick Quick quote
+Quote Post
post Jul 24 2014, 12:35:58
Post #3

Литр
*
Group: Подсевший
Posts: 76
Releases: 1
From: Germany
On Forums: 11 years 9 months
Thanks: 141 time(s)
Germany


first track is cut off at 4:09... full lenght: neurasthenie - 2shared


Thanks:
Go to the top of the page
  Insert nick Quick quote
+Quote Post
post Jul 24 2014, 13:54:36
Post #4

Четыре Литра
****
Group: Металариец
Posts: 359
Releases: 131
From: Helvetia
On Forums: 7 years 7 months
Thanks: 2564 time(s)
Switzerland


Thanks, I've just updated the original file.


Thanks:
Go to the top of the page
  Insert nick Quick quote
+Quote Post
post Jul 26 2014, 20:27:03
Post #5

Necromancer
Group Icon
Group: Curation team
Posts: 11,036
Releases: 271
From: Зеленоград
On Forums: 13 years 11 months
Thanks: 8883 time(s)
Russian Federation


Нееее... Не понравилось.
Go to the top of the page
  Insert nick Quick quote
+Quote Post
post Aug 1 2014, 09:23:27
Post #6

Правь статус, ####!111
**************
Group: Металариец
Posts: 3,499
Releases: 1
From: Рейх
On Forums: 14 years 1 month
Thanks: 921 time(s)
Ukraine


Первая песня обрывается ине до конца, что за дела?

Офигенный меланхоличный альбом! Прошлый был провальный, а этот своими мелодичными и немного постовым звуком стал для меня наверно лучшим их творением.
Go to the top of the page
  Insert nick Quick quote
+Quote Post
post Apr 26 2019, 08:02:22
Post #7

Group Icon
Group: S-moderation team
Posts: 16,645
Releases: 1441
From: Zagreb
On Forums: 9 years 6 months
Thanks: 75503 time(s)
Croatia


Register


Thanks:
Go to the top of the page
  Insert nick Quick quote
+Quote Post

Reply to this topicStart new topic
1 User(s) are reading this topic (1 Guests and 0 Anonymous Users)
0 Members:

 



- Lo-Fi Version Support form
Copyrights and abuse reports form
Time is now: 18th September 2020 - 18:57:44