Welcome Guest ( Log In | Register )

> Narath - Staublicht (Rehearsal) [demo] (2005), Black Metal (D)
post Jul 24 2014, 18:45:35
Post #1

Пять Литров
*****
Group: Металариец
Posts: 499
Releases: 145
From: Питер
On Forums: 14 years 1 month
Thanks: 1803 time(s)
Russian Federation


(IMG:http://metalarea.org/images/audiocovers/2014_Jul/acov_tid227809_thumb.jpg)

*Artist: Narath
*Album: Staublicht (Rehearsal) [demo]
*Year: 2005
*Genre: Black Metal
*Country: Russian Federation (IMG:http://metalarea.org/forum/style_images/flags/Russian%20Federation.png)
*Format: mp3@CBR320kbps
*Size: 83MB

Tracklist:
01. Idol
02. Wound
03. I Hear The Sea II
04. Staublicht
05. Acoustic Set
******************************
Total playing time: 35:34

Preview 1

Technical info
(IMG:http://metalarea.org/images/spectrogram/2014_Jul/c8998eeca4295a38f0a9dc82e73b867d.png)
Input File: 1.Idol.mp3
Channels : 2
Sample Rate : 44100
Precision : 16-bit
Duration : 00:05:36.93 = 14858613 samples = 25269.8 CDDA sectors
File Size : 13.5M
Bit Rate : 320k
Sample Encoding: MPEG audio (layer I, II or III)
Comments :
Title=Idol
Artist=Narath
Album=Staublicht (Rehearsal)
Tracknumber=1
Year=2005
Genre=Black Metal



Register


Go to the top of the page
  Insert nick Quick quote
+Quote Post
 
Start new topic
Replies (1 - 3)
post Jul 25 2014, 07:52:28
Post #2

Шесть Литров
******
Group: Металариец
Posts: 584
Releases: 8
On Forums: 8 years 6 months
Thanks: 379 time(s)
Russian Federation


Muxeu,
только ведь группа Narath вконтакте сейчас частная, так что люди со стороны не видят ничего там. Смысл давать ссылку на неё в качестве превью?
Go to the top of the page
  Insert nick Quick quote
+Quote Post
post Jul 25 2014, 15:49:29
Post #3

Пять Литров
*****
Group: Металариец
Posts: 499
Releases: 145
From: Питер
On Forums: 14 years 1 month
Thanks: 1803 time(s)
Russian Federation


Starseeker, был не в курсе (IMG:style_emoticons/default/1488.gif)
Go to the top of the page
  Insert nick Quick quote
+Quote Post
post Sep 5 2019, 08:02:02
Post #4

antithesis
**************
Group: Металариец
Posts: 2,948
Releases: 33
From: VRN
On Forums: 9 years 9 months
Thanks: 1796 time(s)
Russian Federation


reuploaded
Register


Thanks:
Go to the top of the page
  Insert nick Quick quote
+Quote Post

Reply to this topicStart new topic
2 User(s) are reading this topic (2 Guests and 0 Anonymous Users)
0 Members:

 



- Lo-Fi Version Support form
Copyrights and abuse reports form
Time is now: 22nd February 2020 - 20:47:45