Welcome Guest ( Log In | Register )

> Narath - Fog (Rehearsal) [demo] (2008), Black Metal (D)
post Aug 8 2014, 22:44:27
Post #1

Пять Литров
*****
Group: Металариец
Posts: 499
Releases: 145
From: Питер
On Forums: 14 years 1 month
Thanks: 1805 time(s)
Russian Federation


(IMG:http://metalarea.org/images/audiocovers/2014_Aug/acov_tid228486_thumb.jpg)

*Artist: Narath
*Album: Fog (Rehearsal) [demo]
*Year: 2008
*Genre: Black Metal
*Country: Russian Federation (IMG:http://metalarea.org/forum/style_images/flags/Russian%20Federation.png)
*Format: mp3@CBR320kbps
*Size: 42MB

Tracklist:
01. Fog
02. Laughter Of The Dead II
03. The Brown Epilogue
******************************
Total playing time: 18:32

Technical info
(IMG:http://metalarea.org/images/spectrogram/2014_Aug/020ee56d7cda1c08714517b5c3592eae.png)
Input File: 2.Laughter Of The Dead II.mp3
Channels : 2
Sample Rate : 44100
Precision : 16-bit
Duration : 00:04:25.75 = 11719399 samples = 19931 CDDA sectors
File Size : 10.6M
Bit Rate : 320k
Sample Encoding: MPEG audio (layer I, II or III)
Comments :
Title=Laughter Of The Dead II
Artist=Narath
Album=Fog (Rehearsal)
Tracknumber=2
Year=2008
Genre=Black Metal



Register


Go to the top of the page
  Insert nick Quick quote
+Quote Post
 
Start new topic
Replies (1 - 4)
post Jun 28 2017, 14:14:53
Post #2

ZEHTAN!
******
Group: Металариец
Posts: 624
Releases: 30
From: Germany
On Forums: 13 years 11 months
Thanks: 1086 time(s)
Germany


can someone please re-upload this release?!

thank you!! (IMG:style_emoticons/default/smile1.gif)
Go to the top of the page
  Insert nick Quick quote
+Quote Post
post Jul 6 2017, 15:53:15
Post #3

ZEHTAN!
******
Group: Металариец
Posts: 624
Releases: 30
From: Germany
On Forums: 13 years 11 months
Thanks: 1086 time(s)
Germany


nobody?! :/
Go to the top of the page
  Insert nick Quick quote
+Quote Post
post Jul 6 2017, 16:59:39
Post #4

ретроград
**************
Group: Металариец
Posts: 5,034
Releases: 182
On Forums: 12 years 8 months
Thanks: 7505 time(s)
Vatican City


ЦИТАТА(craP_cillA @ Jul 6 2017, 17:53:15) *
nobody?! :/

Register


Go to the top of the page
  Insert nick Quick quote
+Quote Post
post Jul 6 2017, 17:21:13
Post #5

ZEHTAN!
******
Group: Металариец
Posts: 624
Releases: 30
From: Germany
On Forums: 13 years 11 months
Thanks: 1086 time(s)
Germany


thank you very, very much!! (IMG:style_emoticons/default/banana.gif) (IMG:style_emoticons/default/18.gif)
Go to the top of the page
  Insert nick Quick quote
+Quote Post

Reply to this topicStart new topic
2 User(s) are reading this topic (2 Guests and 0 Anonymous Users)
0 Members:

 



- Lo-Fi Version Support form
Copyrights and abuse reports form
Time is now: 24th February 2020 - 00:21:04