Welcome Guest ( Log In | Register )

 
Reply to this topicStart new topic
> Deacon - Death To Posers [demo] (1985), Speed/Power Metal
post Aug 11 2014, 16:21:59
Post #1

Подвал
**************
Group: Металариец
Posts: 12,224
Releases: 6896
From: Far East (Khabarovsk)
On Forums: 9 years 5 months
Thanks: 62996 time(s)
Russian Federation


(IMG:http://metalarea.org/images/audiocovers/2014_Aug/acov_tid228562_thumb.jpg)

*Artist: Deacon
*Album: Death To Posers [demo]
*Year: 1985
*Genre: Speed/Power Metal
*Country: United States (IMG:http://metalarea.org/forum/style_images/flags/United%20States.png)
*Format: mp3@CBR320kbps
*Size: 60MB

Tracklist:
1. Death To Posers 04:18
2. Evermore / Praying And Hoping 08:02
3. Sins Will Burn 02:08
4. High Noon 02:22
5. I'll Be Damned 03:31
6. Sins Will Burn (Rehearsal) 02:41
7. Death To Posers (Rehearsal) 03:59
8. I'll Be Damned (Rehearsal) 02:08
******************************
Total playing time: 29:09

Extended info
Band from Brandon, Florida.


Technical info
(IMG:http://metalarea.org/images/spectrogram/2014_Aug/9038c47a9455c4d9cba74180375bbc6e.png)
Input File: 03-Sins Will Burn.mp3
Channels : 2
Sample Rate : 44100
Precision : 16-bit
Duration : 00:02:08.79 = 5679463 samples = 9658.95 CDDA sectors
File Size : 5.15M
Bit Rate : 320k
Sample Encoding: MPEG audio (layer I, II or III)
Comments :
Title=Sins Will Burn
Artist=Deacon
Album=Death To Posers (Demo)
Tracknumber=03
Year=1985
Genre=Metal



Register


Go to the top of the page
  Insert nick Quick quote
+Quote Post

Reply to this topicStart new topic
1 User(s) are reading this topic (1 Guests and 0 Anonymous Users)
0 Members:

 



- Lo-Fi Version Support form
Copyrights and abuse reports form
Time is now: 20th July 2018 - 17:33:44