Welcome Guest ( Log In | Register )

> Syracuse - World Of Darkness [demo] (1996), Heavy/Power Metal
post Aug 15 2014, 13:31:27
Post #1

Подвал
**************
Group: Металариец
Posts: 16,510
Releases: 9432
From: Far East (Khabarovsk)
On Forums: 12 years 10 months
Thanks: 107770 time(s)
Russian Federation


(IMG:http://metalarea.org/images/audiocovers/2014_Aug/acov_tid228716_thumb.jpg)

*Artist: Syracuse
*Album: World Of Darkness [demo]
*Year: 1996
*Genre: Heavy/Power Metal
*Country: Germany (IMG:http://metalarea.org/forum/style_images/flags/Germany.png)
*Format: mp3@CBR320kbps
*Size: 76MB

Tracklist:
1. Fire In Your Heart 03:10
2. Return To Reality 04:05
3. The Right Way 06:53
4. World Of Darkness 08:40
5. Out In The Streets 03:27
6. Love Gone 04:17
7. Fighters In The Back 02:44
8. Lonesome One 03:08
******************************
Total playing time: 36:24

Technical info
(IMG:http://metalarea.org/images/spectrogram/2014_Aug/bc6fb418185f9097238a1f53cc6fbe63.png)
Input File: 01-Fire In Your Heart.mp3
Channels : 2
Sample Rate : 44100
Precision : 16-bit
Duration : 00:03:07.95 = 8288375 samples = 14095.9 CDDA sectors
File Size : 7.52M
Bit Rate : 320k
Sample Encoding: MPEG audio (layer I, II or III)
Comments :
Title=Fire In Your Heart
Artist=Syracuse
Album=World Of Darkness (Demo)
Tracknumber=01
Year=1996
Genre=Heavy Metal



Register


Go to the top of the page
  Insert nick Quick quote
+Quote Post
 
Start new topic
Replies (1 - 3)
post Feb 10 2018, 09:16:25
Post #2

Правь статус, ####!111
**************
Group: Металариец
Posts: 3,564
Releases: 0
From: UK
On Forums: 5 years 5 months
Thanks: 613 time(s)
United Kingdom


Please can you reup
Go to the top of the page
  Insert nick Quick quote
+Quote Post
post Feb 10 2018, 22:05:32
Post #3

Шесть Литров
******
Group: Металариец
Posts: 530
Releases: 0
From: Argentina
On Forums: 6 years 6 months
Thanks: 443 time(s)
Unknown


@320
Register


Thanks:
(2) Wail, Xtohar,
Go to the top of the page
  Insert nick Quick quote
+Quote Post
post Feb 10 2018, 22:11:03
Post #4

Правь статус, ####!111
**************
Group: Металариец
Posts: 3,564
Releases: 0
From: UK
On Forums: 5 years 5 months
Thanks: 613 time(s)
United Kingdom


pichileon thanks a lot


Thanks:
(1) Xtohar,
Go to the top of the page
  Insert nick Quick quote
+Quote Post

Reply to this topicStart new topic
1 User(s) are reading this topic (1 Guests and 0 Anonymous Users)
0 Members:

 



- Lo-Fi Version Support form
Copyrights and abuse reports form
Time is now: 5th December 2021 - 03:24:49