Welcome Guest ( Log In | Register )

> 

Здесь релизы с живыми прямыми ссылками на lossless

> Death Penalty - Death Penalty (2014), Heavy/Doom Metal
post Aug 15 2014, 18:44:07
Post #1

Правь статус, ####!111
**************
Group: Металариец
Posts: 20,644
Releases: 14092
From: Г.Харьков
On Forums: 7 years 9 months
Thanks: 248589 time(s)
Unknown


(IMG:http://metalarea.org/images/audiocovers/2014_Aug/acov_tid228765_thumb.jpg)

*Artist: Death Penalty
*Album: Death Penalty
*Year: 2014
*Genre: Heavy/Doom Metal
*Country: Belgium (IMG:http://metalarea.org/forum/style_images/flags/Belgium.png)
*Format: mp3@CBR320kbps
*Size: 113MB

Tracklist:
1. Grotesque Horizon
2. Howling At The Throne Of Decadence
3. Eyes Of The Heretic
4. Golden Tides
5. Into The Ivory Forest
6. Children Of The Night
7. The One That Dwells
8. She Is A Witch
9. Immortal By Your Hand
10. Written By The Insane
******************************
Total playing time: 52:44


(IMG:http://metalarea.org/images/youtube.png)

Extended info
Gaz Jennings - Guitars (Ex-Cathedral)
Michelle Nocon - Vocals (Ex-Serpentcult)
Frederick Cosemans - Drums (Ex-Serpentcult)
Raf Meukens - Bass (Ex-Gorath)


Technical info
(IMG:http://metalarea.org/images/spectrogram/2014_Aug/188e879b6a29ed941cf140643fb07ed3.png)
Input File: 02 - Howling at the Throne of Decadence.mp3
Channels : 2
Sample Rate : 44100
Precision : 16-bit
Duration : 00:05:50.00 = 15434912 samples = 26249.9 CDDA sectors
File Size : 14.0M
Bit Rate : 321k
Sample Encoding: MPEG audio (layer I, II or III)
Comments :
Title=Howling at the Throne of Decadence
Artist=Death Penalty
Album=Death Penalty
Tracknumber=2/10
Year=2014
Genre=Heavy Metal
Discnumber=1/1



Register


Go to the top of the page
  Insert nick Quick quote
+Quote Post
 
Start new topic
Replies (1 - 3)
post Jun 26 2015, 08:13:20
Post #2

Восемь Литров
********
Group: Металариец
Posts: 852
Releases: 25
From: Ultima Thule
On Forums: 6 years 9 months
Thanks: 1577 time(s)
Japan


reuploaded for now...
Register


Go to the top of the page
  Insert nick Quick quote
+Quote Post
post Jan 15 2020, 20:09:16
Post #3

Восемь Литров
********
Group: Металариец
Posts: 815
Releases: 0
On Forums: 3 years 3 months
Thanks: 87 time(s)
Unknown


Please re-upload.
Go to the top of the page
  Insert nick Quick quote
+Quote Post
post Jan 18 2020, 16:10:53
Post #4


Group Icon
Group: S-moderation team
Posts: 14,135
Releases: 1439
From: Zagreb
On Forums: 8 years 11 months
Thanks: 61731 time(s)
Croatia


Register


Thanks:
(2) Olethros, Wail,
Go to the top of the page
  Insert nick Quick quote
+Quote Post

Reply to this topicStart new topic
1 User(s) are reading this topic (1 Guests and 0 Anonymous Users)
0 Members:

 



- Lo-Fi Version Support form
Copyrights and abuse reports form
Time is now: 21st February 2020 - 04:19:19