Welcome Guest ( Log In | Register )

 
Reply to this topicStart new topic
> Narath - Father (Rehearsal) [demo] (2004), Black Metal (D)
post Aug 16 2014, 09:07:54
Post #1

Пять Литров
*****
Group: Металариец
Posts: 499
Releases: 145
From: Питер
On Forums: 14 years 1 month
Thanks: 1803 time(s)
Russian Federation


(IMG:http://metalarea.org/images/audiocovers/2014_Aug/acov_tid228793_thumb.jpg)

*Artist: Narath
*Album: Father (Rehearsal) [demo]
*Year: 2004
*Genre: Black Metal
*Country: Russian Federation (IMG:http://metalarea.org/forum/style_images/flags/Russian%20Federation.png)
*Format: mp3@CBR320kbps
*Size: 49MB

Tracklist:
01. Pride
02. Father
03. Fear
04. Dunkelheit (Burzum Cover)
******************************
Total playing time: 22:07

Technical info
(IMG:http://metalarea.org/images/spectrogram/2014_Aug/00d7f283b522b9360dc8e6c0b6b406b9.png)
Input File: 1.Pride.mp3
Channels : 2
Sample Rate : 44100
Precision : 16-bit
Duration : 00:03:55.13 = 10369233 samples = 17634.8 CDDA sectors
File Size : 9.41M
Bit Rate : 320k
Sample Encoding: MPEG audio (layer I, II or III)
Comments :
Title=Pride
Artist=Narath
Album=Father (Rehearsal)
Tracknumber=1
Year=2004
Genre=Black Metal



Register


Go to the top of the page
  Insert nick Quick quote
+Quote Post

Reply to this topicStart new topic
2 User(s) are reading this topic (2 Guests and 0 Anonymous Users)
0 Members:

 



- Lo-Fi Version Support form
Copyrights and abuse reports form
Time is now: 22nd February 2020 - 20:20:28