Welcome Guest ( Log In | Register )

> Narath - Meisterwerke II (Rehearsal) [demo] (2004), Black Metal (D)
post Aug 16 2014, 09:19:43
Post #1

Пять Литров
*****
Group: Металариец
Posts: 499
Releases: 145
From: Питер
On Forums: 14 years 3 months
Thanks: 1809 time(s)
Russian Federation


(IMG:http://metalarea.org/images/audiocovers/2014_Aug/acov_tid228796_thumb.jpg)

*Artist: Narath
*Album: Meisterwerke II (Rehearsal) [demo]
*Year: 2004
*Genre: Black Metal
*Country: Russian Federation (IMG:http://metalarea.org/forum/style_images/flags/Russian%20Federation.png)
*Format: mp3@CBR320kbps
*Size: 83MB

Tracklist:
01. ...In the Milky-White World
02. Thrown Down And Crushed (Old Wainds Cover)
03. Obey Baphomet (Blackdeath Cover)
04. I Hear the Sea II
05. Your New Muse
06. Untitled
07. Wound (Working Cut)
08. Untitled
09. I Am the Funeral
10. Untitled
******************************
Total playing time: 36:14

Technical info
(IMG:http://metalarea.org/images/spectrogram/2014_Aug/9beebc7f860caea8599f2ed8ffe63a78.png)
Input File: 01....In the Milky-White World.mp3
Channels : 2
Sample Rate : 44100
Precision : 16-bit
Duration : 00:07:14.60 = 19165904 samples = 32595.1 CDDA sectors
File Size : 17.4M
Bit Rate : 320k
Sample Encoding: MPEG audio (layer I, II or III)
Comments :
Title=...In the Milky-White World
Artist=Narath
Album=Meisterwerke II (Rehearsal)
Tracknumber=1
Year=2004
Genre=Black Metal



Register


Go to the top of the page
  Insert nick Quick quote
+Quote Post
 
Start new topic
Replies (1 - 1)
post Oct 2 2019, 13:24:03    Сейчас играет: Afriqve - Intro
Post #2

antithesis
**************
Group: Металариец
Posts: 2,984
Releases: 33
From: VRN
On Forums: 9 years 10 months
Thanks: 1845 time(s)
Russian Federation


reuploaded
Register


Thanks:
(1) wendigo,
Go to the top of the page
  Insert nick Quick quote
+Quote Post

Reply to this topicStart new topic
2 User(s) are reading this topic (2 Guests and 0 Anonymous Users)
0 Members:

 



- Lo-Fi Version Support form
Copyrights and abuse reports form
Time is now: 4th April 2020 - 23:51:31