Welcome Guest ( Log In | Register )

> 

Здесь релизы с живыми прямыми ссылками на lossless

> Maveth & Embrace Of Thorns - A Plague Through The Heavens [split] (2014), Black/Death Metal | Black/Death Metal
post Aug 17 2014, 02:41:28
Post #1

Правь статус, ####!111
**************
Group: Металариец
Posts: 21,293
Releases: 14573
From: Г.Харьков
On Forums: 7 years 10 months
Thanks: 260243 time(s)
Unknown


(IMG:http://metalarea.org/images/audiocovers/2014_Aug/acov_tid228830_thumb.jpg)

*Artist: Maveth & Embrace Of Thorns
*Album: A Plague Through The Heavens [split]
*Year: 2014
*Genre: Black/Death Metal | Black/Death Metal
*Country: Finland (IMG:http://metalarea.org/forum/style_images/flags/Finland.png) | Greece (IMG:http://metalarea.org/forum/style_images/flags/Greece.png)
*Format: mp3@CBR320kbps
*Size: 84MB

Tracklist:
Maveth:
1. Introduction 01:54
2. The Call Of The Lord I - The Adversary 05:56
3. The Call Of The Lord II - The Way 06:04
4. Grail Of Bloodshed 05:49
Embrace Of Thorns:
5. Conqueror Of Mortality 05:42
6. Sempiternally Cursing The Weak 02:30
7. The Pits Of Strife 04:20
8. More Men, Less Axioms 05:06
******************************
Total playing time: 37:21



Technical info
(IMG:http://metalarea.org/images/spectrogram/2014_Aug/1ba6e19850523c3e66c9b96e960cdf26.png)
Input File: 02. The Call Of The Lord I - The Adversary.mp3
Channels : 2
Sample Rate : 44100
Precision : 16-bit
Duration : 00:05:56.66 = 15728706 samples = 26749.5 CDDA sectors
File Size : 14.3M
Bit Rate : 320k
Sample Encoding: MPEG audio (layer I, II or III)
Comments :
Title=The Call Of The Lord I - The Adversary
Artist=Maveth
Album=A Plague Through The Heavens
Tracknumber=2
Year=2014
Genre=Death Metal
Discnumber=1



Register


This post has been edited by Абигор: Aug 17 2014, 09:12:10


Go to the top of the page
  Insert nick Quick quote
+Quote Post
 
Start new topic
Replies (1 - 3)
post Sep 3 2014, 04:43:40
Post #2

sic
***********
Group: Металариец
Posts: 1,606
Releases: 9
From: Волынь - земля родная, сейчас на Львовщине
On Forums: 12 years 8 months
Thanks: 857 time(s)
Ukraine


Maveth понравился.
Go to the top of the page
  Insert nick Quick quote
+Quote Post
post Oct 1 2019, 10:06:04
Post #3

Шесть Литров
******
Group: Металариец
Posts: 632
Releases: 0
From: Hell
On Forums: 4 years 8 months
Thanks: 19 time(s)
Afghanistan


Reupload!
Go to the top of the page
  Insert nick Quick quote
+Quote Post
post Oct 5 2019, 16:28:33
Post #4

Group Icon
Group: S-moderation team
Posts: 14,879
Releases: 1440
From: Zagreb
On Forums: 9 years 1 month
Thanks: 65340 time(s)
Croatia


Register
Go to the top of the page
  Insert nick Quick quote
+Quote Post

Reply to this topicStart new topic
1 User(s) are reading this topic (1 Guests and 0 Anonymous Users)
0 Members:

 



- Lo-Fi Version Support form
Copyrights and abuse reports form
Time is now: 7th April 2020 - 12:35:24