Welcome Guest ( Log In | Register )

> Noctem - God Among Slaves [demo] (2007), Black/Death/Thrash Metal
post Aug 17 2014, 09:37:13
Post #1

...
**************
Group: Металариец
Posts: 3,311
Releases: 1401
From: МЕЩЁРА
On Forums: 11 years 2 weeks
Thanks: 39984 time(s)
Russian Federation


(IMG:http://metalarea.org/images/audiocovers/2014_Aug/acov_tid228837_thumb.jpg)

*Artist: Noctem
*Album: God Among Slaves [demo]
*Year: 2007
*Genre: Black/Death/Thrash Metal
*Country: Spain (IMG:http://metalarea.org/forum/style_images/flags/Spain.png)
*Format: mp3@CBR320kbps
*Size: 46MB

Tracklist:
1. Berserker Of The Destruction 04:45
2. Kiss Of Immortality 05:44
Yells In The Eternity:
3. Part I - God Among Slaves 02:52
4. Part II - The Tongue Of Hell 01:40
5. Part III - Elected By The Sacred Flame 01:15
******************************
Total playing time: 16:16


(IMG:http://metalarea.org/images/myspace.png)
noctemofficial.com

Extended info
+ Scans.


Technical info
(IMG:http://metalarea.org/images/spectrogram/2014_Aug/a057039458b5591ca657c508501f9c43.png)
Input File: 1. Berserker Of The Destruction.mp3
Channels : 2
Sample Rate : 44100
Precision : 16-bit
Duration : 00:04:45.91 = 12608807 samples = 21443.5 CDDA sectors
File Size : 11.4M
Bit Rate : 320k
Sample Encoding: MPEG audio (layer I, II or III)
Comments :
Title=Berzerker Of Destruction
Artist=Noctem
Album=God Among Slaves
Tracknumber=1
Year=2007
Genre=Black/Death/Thrash Metal



Register


Go to the top of the page
  Insert nick Quick quote
+Quote Post
 
Start new topic
Replies (1 - 3)
post Aug 17 2014, 13:23:00
Post #2

Маньяк
**********
Group: Металариец
Posts: 1,268
Releases: 0
From: Луцьк
On Forums: 11 years 10 hours
Thanks: 623 time(s)
Ukraine


Это шикарная группа! Всем любителям блекодеза очень рекомендую!
Go to the top of the page
  Insert nick Quick quote
+Quote Post
post Aug 19 2014, 08:39:02
Post #3

Сектант технодро4чер
**************
Group: Металариец
Posts: 5,390
Releases: 143
From: Тимчасово окупована територія
On Forums: 10 years 7 months
Thanks: 5578 time(s)
Ukraine


ЦИТАТА(vo140182fav @ Aug 17 2014, 15:23:00) *
Это шикарная группа! Всем любителям блекодеза очень рекомендую!


Группа достаточно известна, и почитатели жанра с ней наверняка знакомы. Особенно хорош был дебютник (IMG:style_emoticons/default/20.gif)
Go to the top of the page
  Insert nick Quick quote
+Quote Post
post Apr 15 2019, 15:08:55
Post #4

Мегаманьяк
***********
Group: Металариец
Posts: 1,815
Releases: 0
On Forums: 9 months 2 weeks
Thanks: 1033 time(s)
Russian Federation


37 mb/320 kbps
Register
Go to the top of the page
  Insert nick Quick quote
+Quote Post

Reply to this topicStart new topic
2 User(s) are reading this topic (2 Guests and 0 Anonymous Users)
0 Members:

 



- Lo-Fi Version Support form
Copyrights and abuse reports form
Time is now: 19th April 2019 - 01:27:37