Welcome Guest ( Log In | Register )

> Plaguebringer - Hallowed [ep] (2014), Melodic/Progressive Deathcore
post Aug 20 2014, 14:11:47
Post #1

Serial Uploader
Group Icon
Group: V.I.P
Posts: 37,532
Releases: 35706
From: Lithuania
On Forums: 12 years 7 months
Thanks: 430747 time(s)
Lithuania


(IMG:https://metalarea.org/images/audiocovers/2014_Aug/acov_tid228947_thumb.jpg)

*Artist: Plaguebringer
*Album: Hallowed [ep]
*Year: 2014
*Genre: Melodic/Progressive Deathcore
*Country: Canada (IMG:https://metalarea.org/forum/style_images/flags/Canada.png)
*Format: mp3@CBR320kbps
*Size: 57MB

Tracklist:
01. Prelude 01:14
02. Hallowed 04:24
03. The Ventriloquist (Feat. Christian Münzner) 05:30
04. Nevermore 04:38
05. March Of The Corrupted (Feat. Dwid Hellion) 03:24
06. Blood & Gold 05:14
******************************
Total playing time: 24:24



(IMG:https://metalarea.org/images/youtube.png)

Technical info
(IMG:https://metalarea.org/images/spectrogram/2014_Aug/ffc253db266be3ada2187e3c2d1c4c90.png)
Input File: 04. Nevermore.mp3
Channels : 2
Sample Rate : 44100
Precision : 16-bit
Duration : 00:04:38.60 = 12286040 samples = 20894.6 CDDA sectors
File Size : 11.4M
Bit Rate : 329k
Sample Encoding: MPEG audio (layer I, II or III)
Comments :
Title=Nevermore
Artist=Plaguebringer
Album=Hallowed EP
Tracknumber=4
Year=2014



Register


Go to the top of the page
  Insert nick Quick quote
+Quote Post
 
Start new topic
Replies (1 - 1)
post Jan 14 2021, 09:40:12
Post #2

Три Литра
***
Group: Завсегдатай
Posts: 247
Releases: 0
From: Суворов
On Forums: 2 years 11 months
Thanks: 6 time(s)
Russian Federation


Актуальное название группы для нынешних времён
Go to the top of the page
  Insert nick Quick quote
+Quote Post

Reply to this topicStart new topic
2 User(s) are reading this topic (2 Guests and 0 Anonymous Users)
0 Members:

 



- Lo-Fi Version Support form
Copyrights and abuse reports form
Time is now: 16th January 2021 - 04:15:59