Welcome Guest ( Log In | Register )

> Nekkrofukk - Nukklear Goat Vomit [ep] (2012), Black/Doom Metal
post Aug 20 2014, 16:01:00
Post #1

...
**************
Group: Металариец
Posts: 3,234
Releases: 1356
From: МЕЩЁРА
On Forums: 10 years 6 months
Thanks: 39027 time(s)
Russian Federation


(IMG:http://metalarea.org/images/audiocovers/2014_Aug/acov_tid228952_thumb.jpg)

*Artist: Nekkrofukk
*Album: Nukklear Goat Vomit [ep]
*Year: 2012
*Genre: Black/Doom Metal
*Country: Poland (IMG:http://metalarea.org/forum/style_images/flags/Poland.png)
*Format: mp3@CBR320kbps
*Size: 40MB

Tracklist:
1. Sperm Of The Goatlord 04:19
2. Blakkk Magikk Ritual 04:31
3. Regin Of Antikkhrist 02:59
4. Nukklear Goat Vomit 03:35
5. Morbidhammer 01:32
******************************
Total playing time: 16:56

Extended info
+ Scans.

Cassette tape 100 copies. (Masterful Records)

Lord K. - All instruments, Vocals. (ex-Revelation of Doom, ex-Hate)


Technical info
(IMG:http://metalarea.org/images/spectrogram/2014_Aug/558de78095d17f299f5c1dc5fd98b3da.png)
Input File: 1. Sperm of the Goatlord.mp3
Channels : 2
Sample Rate : 44100
Precision : 16-bit
Duration : 00:04:19.92 = 11462296 samples = 19493.7 CDDA sectors
File Size : 10.4M
Bit Rate : 320k
Sample Encoding: MPEG audio (layer I, II or III)
Comments :
Title=Sperm of the Goatlord
Artist=Nekkrofukk
Album=Nukklear Goat Vomit
Tracknumber=1
Year=2012
Genre=Black/Doom Metal



Register


Go to the top of the page
  Insert nick Quick quote
+Quote Post
 
Start new topic
Replies (1 - 3)
post Oct 11 2014, 02:46:43
Post #2

Маньяк
**********
Group: Металариец
Posts: 1,414
Releases: 0
From: Рівне
On Forums: 9 years 7 months
Thanks: 129 time(s)
Ukraine


Go to the top of the page
  Insert nick Quick quote
+Quote Post
post Oct 11 2018, 19:37:57
Post #3

Три Литра
***
Group: Завсегдатай
Posts: 293
Releases: 0
From: Poland
On Forums: 1 year 10 months
Thanks: 74 time(s)
Poland


Reupload please!
Go to the top of the page
  Insert nick Quick quote
+Quote Post
post Oct 11 2018, 19:42:17
Post #4

...
Group Icon
Group: S-moderation team
Posts: 7,159
Releases: 1286
On Forums: 7 years 7 months
Thanks: 35150 time(s)
Croatia


Register


Go to the top of the page
  Insert nick Quick quote
+Quote Post

Reply to this topicStart new topic
2 User(s) are reading this topic (2 Guests and 0 Anonymous Users)
0 Members:

 



- Lo-Fi Version Support form
Copyrights and abuse reports form
Time is now: 15th October 2018 - 11:13:58