Welcome Guest ( Log In | Register )

> Nekkrofukk - Satan, Urine, Blood, Sperm [ep] (2013), Black/Doom Metal
post Aug 20 2014, 16:04:01
Post #1

...
**************
Group: Металариец
Posts: 3,237
Releases: 1357
From: МЕЩЁРА
On Forums: 10 years 6 months
Thanks: 39085 time(s)
Russian Federation


(IMG:http://metalarea.org/images/audiocovers/2014_Aug/acov_tid228953_thumb.jpg)

*Artist: Nekkrofukk
*Album: Satan, Urine, Blood, Sperm [ep]
*Year: 2013
*Genre: Black/Doom Metal
*Country: Poland (IMG:http://metalarea.org/forum/style_images/flags/Poland.png)
*Format: mp3@CBR320kbps
*Size: 55MB

Tracklist:
1. Worship Of Baphomet/Sadogoat Messiah 05:25
2. Lucifero 04:03
3. Satan, Urine, Blood, Sperm 04:45
4. Mighty Diabolos 04:28
5. The Key 04:37
******************************
Total playing time: 23:18

Extended info
+ Scans.

Cassette tape 100 copies. (Masterful Records)

Lord K. - All instruments, Vocals. (ex-Revelation of Doom, ex-Hate)


Technical info
(IMG:http://metalarea.org/images/spectrogram/2014_Aug/69ea98c1d14b5ccac3f0d12976a6b3e7.png)
Input File: 2. Lucifero.mp3
Channels : 2
Sample Rate : 44100
Precision : 16-bit
Duration : 00:04:03.88 = 10754888 samples = 18290.6 CDDA sectors
File Size : 9.76M
Bit Rate : 320k
Sample Encoding: MPEG audio (layer I, II or III)
Comments :
Title=Lucifero
Artist=Nekkrofukk
Album=Satan, Urine, Blood, Sperm
Tracknumber=2
Year=2013
Genre=Black/Doom Metal



Register


Go to the top of the page
  Insert nick Quick quote
+Quote Post
 
Start new topic
Replies (1 - 4)
post Aug 20 2014, 19:47:49
Post #2

Group: Дух
Posts: 4
Releases: 0
On Forums: 9 years 7 months
Thanks: 0 time(s)
Russian Federation


(IMG:style_emoticons/default/9.gif) big thx
Go to the top of the page
  Insert nick Quick quote
+Quote Post
post Oct 11 2014, 03:01:54
Post #3

Маньяк
**********
Group: Металариец
Posts: 1,414
Releases: 0
From: Рівне
On Forums: 9 years 7 months
Thanks: 129 time(s)
Ukraine


Go to the top of the page
  Insert nick Quick quote
+Quote Post
post Oct 11 2018, 19:38:08
Post #4

Три Литра
***
Group: Завсегдатай
Posts: 296
Releases: 0
From: Poland
On Forums: 1 year 10 months
Thanks: 78 time(s)
Poland


Reupload please!
Go to the top of the page
  Insert nick Quick quote
+Quote Post
post Oct 11 2018, 19:44:03
Post #5

...
Group Icon
Group: S-moderation team
Posts: 7,268
Releases: 1288
On Forums: 7 years 7 months
Thanks: 35465 time(s)
Croatia


Register


Go to the top of the page
  Insert nick Quick quote
+Quote Post

Reply to this topicStart new topic
1 User(s) are reading this topic (1 Guests and 0 Anonymous Users)
0 Members:

 



- Lo-Fi Version Support form
Copyrights and abuse reports form
Time is now: 23rd October 2018 - 16:46:26