Welcome Guest ( Log In | Register )

> The True Frost - In The Gleam Of A Morbid Fullmoon [demo] (1997), Black Metal (D)
post Aug 23 2014, 13:04:00
Post #1

funeral doom fan
Group Icon
Group: S-moderation team
Posts: 4,757
Releases: 2452
From: Ростов-на-Дону
On Forums: 13 years 3 months
Thanks: 46009 time(s)
Russian Federation


(IMG:http://metalarea.org/images/audiocovers/2014_Aug/acov_tid229075_thumb.jpg)

*Artist: The True Frost
*Album: In The Gleam Of A Morbid Fullmoon [demo]
*Year: 1997
*Genre: Black Metal
*Country: Germany (IMG:http://metalarea.org/forum/style_images/flags/Germany.png)
*Format: mp3@CBR320kbps
*Size: 100MB

Tracklist:
1. Legion of death
2. An die Elemente
3. Soulcide
4. The dark souls' domain
5. Flaming Sirius
6. Unholy blessings
7. Das letzte Licht
8. In einer eisigen Dezembernacht
9. The triumph of the Asphyx
******************************
Total playing time: 43:31

Technical info
(IMG:http://metalarea.org/images/spectrogram/2014_Aug/f8685be1e1c9586113479e1114b0fd17.png)
Input File: 01 - Legion Of Death.mp3
Channels : 2
Sample Rate : 44100
Precision : 16-bit
Duration : 00:04:33.19 = 12047811 samples = 20489.5 CDDA sectors
File Size : 10.9M
Bit Rate : 320k
Sample Encoding: MPEG audio (layer I, II or III)
Comments :
Title=Legion Of Death
Artist=The True Frost
Album=In The Gleam Of A Morbid Fullmoon
Tracknumber=1
Year=1997
Genre=Black Metal



Register


Go to the top of the page
  Insert nick Quick quote
+Quote Post
 
Start new topic
Replies (1 - 5)
post Aug 23 2014, 21:13:01
Post #2

De Mysteriis Dom Sathanas
**************
Group: Металариец
Posts: 3,476
Releases: 63
From: Москва
On Forums: 10 years 9 months
Thanks: 2959 time(s)
Russian Federation


В коллекцию! (IMG:style_emoticons/default/pray.gif)
Go to the top of the page
  Insert nick Quick quote
+Quote Post
post Aug 24 2014, 05:28:05
Post #3

Пять Литров
*****
Group: Металариец
Posts: 454
Releases: 193
On Forums: 11 years 2 weeks
Thanks: 2231 time(s)
Brazil


I worship all these underground German Black Metal! (IMG:style_emoticons/default/pray.gif)
Go to the top of the page
  Insert nick Quick quote
+Quote Post
post Oct 13 2014, 05:14:37
Post #4

Маньяк
**********
Group: Металариец
Posts: 1,414
Releases: 0
From: Рівне
On Forums: 10 years 1 month
Thanks: 133 time(s)
Ukraine


Go to the top of the page
  Insert nick Quick quote
+Quote Post
post Apr 15 2019, 14:35:46
Post #5

I hate you all
***********
Group: Металариец
Posts: 1,951
Releases: 74
From: Ukraine
On Forums: 11 years 11 months
Thanks: 4868 time(s)
Ukraine


Перезалейте плз на мегу или медиафаер !
Go to the top of the page
  Insert nick Quick quote
+Quote Post
post Apr 15 2019, 15:13:54
Post #6

Forever Underground
**************
Group: Металариец
Posts: 5,628
Releases: 0
On Forums: 4 years 1 week
Thanks: 5538 time(s)
Unknown


QUOTE(rimfrost @ Apr 15 2019, 15:35:46) *
Перезалейте плз на мегу или медиафаер!

@320:
Register


Thanks:
Go to the top of the page
  Insert nick Quick quote
+Quote Post

Reply to this topicStart new topic
1 User(s) are reading this topic (1 Guests and 0 Anonymous Users)
0 Members:

 



- Lo-Fi Version Support form
Copyrights and abuse reports form
Time is now: 19th April 2019 - 01:23:51