Welcome Guest ( Log In | Register )

> The Furor - Impending Revelation (2014), Black/Death Metal
post Sep 5 2014, 08:25:22
Post #1

Правь статус, ####!111
**************
Group: Металариец
Posts: 23,158
Releases: 16150
From: Г.Харьков
On Forums: 8 years 4 months
Thanks: 300622 time(s)
Unknown


(IMG:http://metalarea.org/images/audiocovers/2014_Sep/acov_tid229741_thumb.jpg)

*Artist: The Furor
*Album: Impending Revelation
*Year: 2014
*Genre: Black/Death Metal
*Country: Australia (IMG:http://metalarea.org/forum/style_images/flags/Australia.png)
*Format: mp3@CBR320kbps
*Size: 100MB

Tracklist:
1. Hammer Hierarchy 05:49
2. Inferno Fortificaion 04:29
3. Summoned Obscurity 03:51
4. Seven Trumpets (Ceaseless Armageddon) 04:35
5. Corpse Eclipse 06:21
6. Diabolic Liberation 05:43
7. Black Sorcerer of Sadism 04:24
8. Show No Mercy 03:04
9. The Pentagran Prevails 05:37
******************************
Total playing time: 43:53



Technical info
(IMG:http://metalarea.org/images/spectrogram/2014_Sep/74fe86731c131df80977cb739d4c6407.png)
Input File: 03 - Summoned Obscurity.mp3
Channels : 2
Sample Rate : 44100
Precision : 16-bit
Duration : 00:03:50.86 = 10180838 samples = 17314.4 CDDA sectors
File Size : 9.24M
Bit Rate : 320k
Sample Encoding: MPEG audio (layer I, II or III)
Comments :
Title=Summoned Obscurity
Artist=The Furor
Album=Impending Revelation
Tracknumber=3
Year=2014
Genre=Death Metal



Register


Go to the top of the page
  Insert nick Quick quote
+Quote Post
 
Start new topic
Replies (1 - 4)
post Sep 5 2014, 17:30:29
Post #2

Маньяк
**********
Group: Металариец
Posts: 1,048
Releases: 4
From: Харьков
On Forums: 12 years 1 month
Thanks: 377 time(s)
Ukraine


почти все прослушал. порожняк.
Go to the top of the page
  Insert nick Quick quote
+Quote Post
post Sep 5 2014, 17:35:48
Post #3

Мегаманьяк
***********
Group: Металариец
Posts: 1,550
Releases: 14
From: Москва
On Forums: 12 years 5 months
Thanks: 986 time(s)
Antarctica


А обложка настраивала на положительный исход (IMG:style_emoticons/default/smile1.gif)
Go to the top of the page
  Insert nick Quick quote
+Quote Post
post Jan 14 2020, 15:17:39
Post #4

Правь статус, ####!111
**************
Group: Металариец
Posts: 8,920
Releases: 0
From: Москва
On Forums: 11 years 1 month
Thanks: 15582 time(s)
Russian Federation


Перезалейте плз
Go to the top of the page
  Insert nick Quick quote
+Quote Post
post Jan 14 2020, 16:28:29
Post #5

Добрый
**************
Group: Металариец
Posts: 4,387
Releases: 0
On Forums: 2 years 2 months
Thanks: 9194 time(s)
Russian Federation


102 mb/320 kbps
Register


Thanks:
Go to the top of the page
  Insert nick Quick quote
+Quote Post

Reply to this topicStart new topic
1 User(s) are reading this topic (1 Guests and 0 Anonymous Users)
0 Members:

 



- Lo-Fi Version Support form
Copyrights and abuse reports form
Time is now: 20th September 2020 - 21:21:53