Welcome Guest ( Log In | Register )

> Nekkromaniac - Pit Of Ghouls [demo] (2014), Thrash Metal
post Sep 5 2014, 14:17:22
Post #1

Мастер волшебного кнута
**************
Group: Металариец
Posts: 3,784
Releases: 3508
From: Кронштадт, Санкт-Петербург
On Forums: 10 years 4 months
Thanks: 20670 time(s)
Russian Federation


(IMG:https://metalarea.org/images/audiocovers/2014_Sep/acov_tid229791_thumb.jpg)

*Artist: Nekkromaniac
*Album: Pit Of Ghouls [demo]
*Year: 2014
*Genre: Thrash Metal
*Country: Germany (IMG:https://metalarea.org/forum/style_images/flags/Germany.png)
*Format: mp3@CBR320kbps
*Size: 111MB

Tracklist:
01. Envenomed, Enraged 04:58
02. Barrage Of Corpses 04:30
03. Cloud Nine 02:15
04. Doombringer 04:11
05. Gruesome Reality 02:35
06. Endless War 04:11
07. Holocaust Now 03:06
08. Malevolence 05:03
09. B.I.I.D. 04:27
10. Open The Gates Of Hell 04:07
11. Tortured To Death 03:39
12. Pit Of Ghouls 05:06
******************************
Total playing time: 48:08



Technical info
(IMG:https://metalarea.org/images/spectrogram/2014_Sep/bee9407024e8c4af6a0ccbc106f81d3d.png)
Input File: 02 Barrage of Corpses.mp3
Channels : 2
Sample Rate : 44100
Precision : 16-bit
Duration : 00:04:30.08 = 11910484 samples = 20255.9 CDDA sectors
File Size : 10.9M
Bit Rate : 323k
Sample Encoding: MPEG audio (layer I, II or III)
Comments :
Title=02 Barrage of Corpses
Artist=Nekkromaniac
Album=Pit of Ghouls (Demo)
Tracknumber=2
Year=2014
Genre=Thrash Metal



Register


Вернуться к началу страницы
  Insert nick Quick quote
+Цитировать сообщение
 
Создать новую тему
Replies (1 - 6)
post Sep 6 2014, 05:43:08
Post #2

South Of Heaven /адепт ВУДУ
**************
Group: Металариец
Posts: 11,910
Releases: 7
From: Санкт-Петербург
On Forums: 7 years 10 months
Thanks: 4243 time(s)
Russian Federation


Ничего себе демо: из 12 песен на 48 минут (IMG:style_emoticons/default/17.gif)
Вернуться к началу страницы
  Insert nick Quick quote
+Цитировать сообщение
post Sep 6 2014, 10:05:46
Post #3

Правь статус, ####!111
**************
Group: Металариец
Posts: 5,060
Releases: 0
From: Primorye.ru
On Forums: 6 years 11 months
Thanks: 944 time(s)
Russian Federation


ЦИТАТА(avkruchinin @ Sep 6 2014, 15:43:08) *
Ничего себе демо: из 12 песен на 48 минут (IMG:style_emoticons/default/17.gif)

... и как себе сие ? (IMG:style_emoticons/default/crazy.gif)
Вернуться к началу страницы
  Insert nick Quick quote
+Цитировать сообщение
post Sep 6 2014, 10:16:36
Post #4

Четыре Литра
****
Group: Металариец
Posts: 347
Releases: 0
From: германия
On Forums: 9 years 2 months
Thanks: 100 time(s)
Russian Federation


Вокал не пошел , а музон отличный !
Вернуться к началу страницы
  Insert nick Quick quote
+Цитировать сообщение
post Sep 6 2014, 11:29:16
Post #5

South Of Heaven /адепт ВУДУ
**************
Group: Металариец
Posts: 11,910
Releases: 7
From: Санкт-Петербург
On Forums: 7 years 10 months
Thanks: 4243 time(s)
Russian Federation


ЦИТАТА(diflock @ Sep 6 2014, 13:05:46) *
... и как себе сие ? (IMG:style_emoticons/default/crazy.gif)

Так себе, удалил.
Вернуться к началу страницы
  Insert nick Quick quote
+Цитировать сообщение
post Sep 7 2014, 12:05:25
Post #6
BAN
RO till
Feb 12 2018, 14:16:59



Вокал панковый кор. Не... не мое
Вернуться к началу страницы
  Insert nick Quick quote
+Цитировать сообщение
post Dec 29 2017, 22:43:35
Post #7

Маньяк
**********
Group: Металариец
Posts: 1,035
Releases: 0
On Forums: 1 year 7 months
Thanks: 23 time(s)
United Kingdom


Please can you reup
Вернуться к началу страницы
  Insert nick Quick quote
+Цитировать сообщение

ОтветитьСоздать новую тему
1 User(s) are reading this topic (1 Guests and 0 Anonymous Users)
0 Members:

 



- Lo-Fi Version Support form
Copyrights and abuse reports form
Time is now: 23rd February 2018 - 03:45:09