Welcome Guest ( Log In | Register )

> Nord Frost - Schwarzwald (2014), Atmospheric Black Metal/Ambient (D5)
post Sep 11 2014, 08:52:16
Post #1

Serial Uploader
Group Icon
Group: V.I.P
Posts: 32,712
Releases: 31010
From: Lithuania
On Forums: 10 years 1 week
Thanks: 355608 time(s)
Lithuania


(IMG:https://metalarea.org/images/audiocovers/2014_Sep/acov_tid230068_thumb.jpg)

*Artist: Nord Frost
*Album: Schwarzwald
*Year: 2014
*Genre: Atmospheric Black Metal/Ambient
*Country: Kazakhstan (IMG:https://metalarea.org/forum/style_images/flags/Kazakhstan.png)
*Format: mp3@CBR320kbps
*Size: 83MB

Tracklist:
01. Schwarzwald I 13:37
02. Schwarzwald II 09:50
03. Schwarzwald III 09:20
04. Schwarzwald IV 07:31
******************************
Total playing time: 40:18

Preview 1

Technical info
(IMG:https://metalarea.org/images/spectrogram/2014_Sep/1b260bf16456db69dd387790601a4bc4.png)
Input File: 03 - Schwarzwald III.mp3
Channels : 2
Sample Rate : 48000
Precision : 16-bit
Duration : 00:09:26.21 = 27177936 samples ~ 42465.5 CDDA sectors
File Size : 22.6M
Bit Rate : 320k
Sample Encoding: MPEG audio (layer I, II or III)
Comments :
Title=Schwarzwald III
Artist=Nord Frost
Album=Schwarzwald
Tracknumber=3/4
Year=2014-09-08T22:50
Genre=Atmospheric Black Metal



Register


Go to the top of the page
  Insert nick Quick quote
+Quote Post
 
Start new topic
Replies (1 - 2)
post Dec 7 2014, 17:01:21
Post #2

antithesis
**************
Group: Металариец
Posts: 2,168
Releases: 27
From: VRN
On Forums: 8 years 3 weeks
Thanks: 1126 time(s)
Russian Federation


немного пластмассовато, но красиво. иней на ветвях и колкость в воздухе присутствует в полном объеме.
Go to the top of the page
  Insert nick Quick quote
+Quote Post
post Feb 14 2018, 18:02:14
Post #3

Group: Подсевший
Posts: 24
Releases: 0
On Forums: 1 year 1 month
Thanks: 0 time(s)
Russian Federation


Где скачать можно?
Go to the top of the page
  Insert nick Quick quote
+Quote Post

Reply to this topicStart new topic
2 User(s) are reading this topic (2 Guests and 0 Anonymous Users)
0 Members:

 



- Lo-Fi Version Support form
Copyrights and abuse reports form
Time is now: 18th June 2018 - 20:17:31