Welcome Guest ( Log In | Register )

> Hyperial - Blood And Dust (2014), Atmospheric Progressive Death Metal (D4)
post Oct 2 2014, 03:05:46
Post #1

Правь статус, ####!111
**************
Group: Металариец
Posts: 12,194
Releases: 8809
From: Г.Харьков
On Forums: 5 years 9 months
Thanks: 141043 time(s)
Unknown


(IMG:http://metalarea.org/images/audiocovers/2014_Oct/acov_tid231185_thumb.jpg)

*Artist: Hyperial
*Album: Blood And Dust
*Year: 2014
*Genre: Atmospheric Progressive Death Metal
*Country: Poland (IMG:http://metalarea.org/forum/style_images/flags/Poland.png)
*Format: mp3@CBR320kbps
*Size: 88MB

Tracklist:
1. The Plague of the Used Masses 03:36
2. In the Abyss of Madness 04:51
3. Gehenna Upon His Feet 04:16
4. Civilization Dies 03:16
5. By the Alley of Silence 04:28
6. The Picture of Deformed Bodies 03:00
7. In the Desert of Dementia 04:55
8. Human in Psychosis Relentless 03:01
9. Till the End of His Days 03:29
10. Luciferion (Tower cover) 04:39
******************************
Total playing time: 39:31



Technical info
(IMG:http://metalarea.org/images/spectrogram/2014_Oct/24f8d0b54f2451d8523382740cfc2d29.png)
Input File: 03-Gehenna Upon His Feet.mp3
Channels : 2
Sample Rate : 44100
Precision : 16-bit
Duration : 00:04:16.84 = 11326424 samples = 19262.6 CDDA sectors
File Size : 10.3M
Bit Rate : 320k
Sample Encoding: MPEG audio (layer I, II or III)
Comments :
Title=Gehenna Upon His Feet
Album=Blood and Dust
Tracknumber=3/10
Year=2014
Genre=Metal



Register


Вернуться к началу страницы
  Insert nick Quick quote
+Цитировать сообщение
 
Создать новую тему
Replies (1 - 3)
post Oct 2 2014, 16:37:34
Post #2

Vana Peerukott
**************
Group: Металариец
Posts: 3,112
Releases: 239
From: Київ, Україна
On Forums: 11 years 10 months
Thanks: 3025 time(s)
Ukraine


зашел на бандкамп послушать 10ю пестню.
ниочинь
Вернуться к началу страницы
  Insert nick Quick quote
+Цитировать сообщение
post Oct 2 2014, 17:11:19
Post #3

Stultus Anethum Siccum.
******
Group: Металариец
Posts: 567
Releases: 0
On Forums: 9 years 1 month
Thanks: 60 time(s)
Unknown


Да уж... там,где долбилово-молотилово,и правда ниочинь,а вот где средний темп,мелодика,клавы атмосферные,так там очень даже ничего...
Вернуться к началу страницы
  Insert nick Quick quote
+Цитировать сообщение
post Feb 14 2018, 17:03:36
Post #4

Quaerite Lux in Tenebris
**********
Group: Металариец
Posts: 1,112
Releases: 14
From: Micsődőllő
On Forums: 7 years 7 months
Thanks: 1760 time(s)
Unknown


320 k / 94.6 Mb:
Register
Вернуться к началу страницы
  Insert nick Quick quote
+Цитировать сообщение

ОтветитьСоздать новую тему
2 User(s) are reading this topic (2 Guests and 0 Anonymous Users)
0 Members:

 



- Lo-Fi Version Support form
Copyrights and abuse reports form
Time is now: 20th February 2018 - 14:22:39