Welcome Guest ( Log In | Register )

> Rosetta - Flies To Flame [ep] (2014), Sludge/Post-Metal (D)
post Oct 7 2014, 11:52:37
Post #1

Serial Uploader
Group Icon
Group: V.I.P
Posts: 33,290
Releases: 31566
From: Lithuania
On Forums: 10 years 5 months
Thanks: 360672 time(s)
Lithuania


(IMG:https://metalarea.org/images/audiocovers/2014_Oct/acov_tid231516_thumb.jpg)

*Artist: Rosetta
*Album: Flies To Flame [ep]
*Year: 2014
*Genre: Sludge/Post-Metal
*Country: United States (IMG:https://metalarea.org/forum/style_images/flags/United%20States.png)
*Format: mp3@CBR320kbps
*Size: 72MB

Tracklist:
01. Soot 09:27
02. Seven Years With Nothing To Show 04:55
03. Les Mots Et Les Choses 09:30
04. Pegasus 07:41
******************************
Total playing time: 31:33

(IMG:https://metalarea.org/images/myspace.png)


Technical info
(IMG:https://metalarea.org/images/spectrogram/2014_Oct/330f586b8e568cf307e7f4083c7ec57b.png)
Input File: 04. Pegasus.mp3
Channels : 2
Sample Rate : 44100
Precision : 16-bit
Duration : 00:07:41.73 = 20362337 samples = 34629.8 CDDA sectors
File Size : 18.5M
Bit Rate : 320k
Sample Encoding: MPEG audio (layer I, II or III)
Comments :
Title=Pegasus
Artist=Rosetta
Album=Flies to Flame
Tracknumber=04/4
Year=2014
Genre=Metal
Discnumber=1/1



Register


Go to the top of the page
  Insert nick Quick quote
+Quote Post
 
Start new topic
Replies (1 - 6)
post Oct 7 2014, 13:26:29
Post #2

Шесть Литров
******
Group: Металариец
Posts: 659
Releases: 1
From: Россия, Санкт-Петербург
On Forums: 10 years 6 months
Thanks: 81 time(s)
Russian Federation


ЕЕЕЕ. Розетта. Я ждал этот релиз.
Go to the top of the page
  Insert nick Quick quote
+Quote Post
post Oct 8 2014, 15:40:20
Post #3

Четыре Литра
****
Group: Металариец
Posts: 331
Releases: 12
From: N.Novgorod
On Forums: 8 years 9 months
Thanks: 266 time(s)
Russian Federation


охохо, "сладж", чо уж не блек метал, ну или давайте ешё грайндкором назовём? Поехавшие, СОТРИТЕ этот маразм из стиля. Пост-метал пост-металом, всё! ни каких даже намёков на экстремализм, присущих сладжу, нет.
Go to the top of the page
  Insert nick Quick quote
+Quote Post
post Nov 19 2014, 15:14:05
Post #4

Маньяк
**********
Group: Металариец
Posts: 1,414
Releases: 0
From: Рівне
On Forums: 9 years 8 months
Thanks: 129 time(s)
Ukraine


Go to the top of the page
  Insert nick Quick quote
+Quote Post
post Jan 5 2015, 04:37:15
Post #5

Маньяк
**********
Group: Металариец
Posts: 1,199
Releases: 0
From: Kaliningrad
On Forums: 10 years 10 months
Thanks: 386 time(s)
Russian Federation


Обалденный альбом, на удивление приятный, монолитный и бескомпромиссный, металл для астранавтов. (IMG:style_emoticons/default/9.gif)
Go to the top of the page
  Insert nick Quick quote
+Quote Post
post Mar 14 2015, 16:40:01
Post #6

Правь статус, ####!111
**************
Group: Металариец
Posts: 3,340
Releases: 9
From: Москва и МО
On Forums: 12 years 4 months
Thanks: 819 time(s)
Russian Federation


А мне показалось, что "Nothing To Show" и как-то релиз ни о чем.
Go to the top of the page
  Insert nick Quick quote
+Quote Post
post Sep 14 2015, 16:23:12
Post #7

Маньяк
**********
Group: Металариец
Posts: 1,199
Releases: 0
From: Kaliningrad
On Forums: 10 years 10 months
Thanks: 386 time(s)
Russian Federation


Cумасшедший кавер, затягивает
https://www.youtube.com/watch?v=_sLubzWLueg
Go to the top of the page
  Insert nick Quick quote
+Quote Post

Reply to this topicStart new topic
1 User(s) are reading this topic (1 Guests and 0 Anonymous Users)
0 Members:

 



- Lo-Fi Version Support form
Copyrights and abuse reports form
Time is now: 19th November 2018 - 02:01:06