Welcome Guest ( Log In | Register )

> Revocation - Deathless (2014), Technical Death/Thrash Metal
post Oct 11 2014, 23:53:30
Post #1

Правь статус, ####!111
**************
Group: Металариец
Posts: 22,291
Releases: 15430
From: Г.Харьков
On Forums: 8 years 1 month
Thanks: 282369 time(s)
Unknown


(IMG:http://metalarea.org/images/audiocovers/2014_Oct/acov_tid231740_thumb.jpg)

*Artist: Revocation
*Album: Deathless
*Year: 2014
*Genre: Technical Death/Thrash Metal
*Country: United States (IMG:http://metalarea.org/forum/style_images/flags/United%20States.png)
*Format: mp3@CBR320kbps
*Size: 111MB

Tracklist:
1. A Debt Owed to the Grave 04:51
2. Deathless 04:56
3. Labyrinth of Eyes 04:45
4. Madness Opus 06:23
5. Scorched Earth Policy 03:47
6. The Blackest Reaches 04:06
7. The Fix 03:13
8. United Helotry 05:13
9. Apex 05:12
10. Witch Trials 06:03
******************************
Total playing time: 48:29

(IMG:http://metalarea.org/images/youtube.png)
(IMG:http://metalarea.org/images/youtube.png)

Extended info
CD-Rip


Technical info
(IMG:http://metalarea.org/images/spectrogram/2014_Oct/f946f93c13a4391d17f7ce931de7294a.png)
Input File: 02 - Deathless.mp3
Channels : 2
Sample Rate : 44100
Precision : 16-bit
Duration : 00:04:56.76 = 13086896 samples = 22256.6 CDDA sectors
File Size : 11.9M
Bit Rate : 320k
Sample Encoding: MPEG audio (layer I, II or III)
Comments :
Title=Deathless
Artist=Revocation
Album=Deathless
Tracknumber=02/10
Year=2014
Genre=Death Metal
Discnumber=1/1



Register


Go to the top of the page
  Insert nick Quick quote
+Quote Post
 
Start new topic
Replies (1 - 8)
post Oct 12 2014, 16:10:26
Post #2

Два Литра
**
Group: Завсегдатай
Posts: 118
Releases: 0
On Forums: 12 years 6 months
Thanks: 19 time(s)
Russian Federation


быстро они сваяли новьё. Чо уж - обязательно к прослушке (IMG:style_emoticons/default/20.gif)
Go to the top of the page
  Insert nick Quick quote
+Quote Post
post Oct 12 2014, 17:58:21
Post #3

Empty Words
**************
Group: Металариец
Posts: 2,050
Releases: 13
From: Москва
On Forums: 10 years 10 months
Thanks: 2591 time(s)
Russian Federation


А вот мне понравилось! Несмотря на сомнения, ибо их пару предыдущих альбомов я в свое время забраковал то ли из-за модернятины, то ли из-за медлительности. Здесь же эти плодовитые америкосы выдали драйвовый, резвый и техничный материал. Не совсем олдскул, современный мелодик трэш/дэт, что, однако, меня совсем не коробит. Альбом определенно выделяется в лавине безликих релизов. Ну и в целом, в данном сегменте — техникал трэш/дэт — едва ли не лучший альбом года. Поправьте меня аргументированно, если это не так.


Thanks:
Go to the top of the page
  Insert nick Quick quote
+Quote Post
post Oct 13 2014, 06:36:42
Post #4

Шесть Литров
******
Group: Металариец
Posts: 532
Releases: 1
From: Тверская
On Forums: 13 years 2 months
Thanks: 269 time(s)
Russian Federation


Отличный материал, отличный звук !!!
Go to the top of the page
  Insert nick Quick quote
+Quote Post
post Oct 29 2014, 15:27:53
Post #5

Schuldinerist
**************
Group: Металариец
Posts: 10,751
Releases: 34
From:
On Forums: 13 years 2 months
Thanks: 6924 time(s)
Russian Federation


samokot, насчет аргументированности у меня наверное не очень получится... но я услышал этот альбом с точностью до наоборот!
Ничего интересного, альбом погрязнет в толпе таких же никаких релизов, на мой взгляд. Техникал под вопросом, мелодик - тоже, безликий дэт/трэш этот очень меня разочаровал. До удивления. Ведь предыдущие их альбомы вроде мне нравились. Хз..
6/10
Go to the top of the page
  Insert nick Quick quote
+Quote Post
post Nov 16 2014, 07:40:52
Post #6

Три Литра
***
Group: Завсегдатай
Posts: 263
Releases: 1
On Forums: 6 years 7 months
Thanks: 117 time(s)
Canada


Порадовали, сильный материал.
Go to the top of the page
  Insert nick Quick quote
+Quote Post
post Nov 16 2014, 10:44:40
Post #7

Четыре Литра
****
Group: Металариец
Posts: 332
Releases: 0
From: Украина,Харьков
On Forums: 9 years 5 months
Thanks: 79 time(s)
Ukraine


Не плохой альбом, без особого восторга правда, но все в меру
Go to the top of the page
  Insert nick Quick quote
+Quote Post
post Aug 11 2016, 04:31:19
Post #8

Going home. Flying high.
**************
Group: Металариец
Posts: 13,018
Releases: 0
From: The Land of Shadows
On Forums: 13 years 10 months
Thanks: 24301 time(s)
Russian Federation


CD-rip @ 320 kbps
Register


Thanks:
Go to the top of the page
  Insert nick Quick quote
+Quote Post
post Jun 30 2020, 13:53:30
Post #9

Добрый
**************
Group: Металариец
Posts: 4,001
Releases: 0
On Forums: 2 years 1 week
Thanks: 6803 time(s)
Russian Federation


121 mb/320 kbps
Register


Thanks:
(1) samokot,
Go to the top of the page
  Insert nick Quick quote
+Quote Post

Reply to this topicStart new topic
1 User(s) are reading this topic (1 Guests and 0 Anonymous Users)
0 Members:

 



- Lo-Fi Version Support form
Copyrights and abuse reports form
Time is now: 8th July 2020 - 23:02:09