Welcome Guest ( Log In | Register )

> Soen - Tellurian (2014), Progressive Metal
post Oct 30 2014, 13:39:31
Post #1

Serial Uploader
Group Icon
Group: V.I.P
Posts: 33,892
Releases: 32133
From: Lithuania
On Forums: 10 years 8 months
Thanks: 366448 time(s)
Lithuania


(IMG:https://metalarea.org/images/audiocovers/2014_Oct/acov_tid232946_thumb.jpg)

*Artist: Soen
*Album: Tellurian
*Year: 2014
*Genre: Progressive Metal
*Country: Sweden (IMG:https://metalarea.org/forum/style_images/flags/Sweden.png)
*Format: mp3@CBR320kbps
*Size: 125MB

Tracklist:
01. Komenco 00:37
02. Tabula Rasa 05:24
03. Kuraman 05:25
04. The Words 06:18
05. Pluton 07:27
06. Koniskas 04:59
07. Ennui 05:21
08. Void 08:30
09. The Other's Fall 08:42
******************************
Total playing time: 52:43

(IMG:https://metalarea.org/images/myspace.png)


Technical info
(IMG:https://metalarea.org/images/spectrogram/2014_Oct/300c9dcb5559d6bd413a44960a1665a0.png)
Input File: 02. Tabula Rasa.mp3
Channels : 2
Sample Rate : 44100
Precision : 16-bit
Duration : 00:05:25.00 = 14332324 samples = 24374.7 CDDA sectors
File Size : 13.1M
Bit Rate : 322k
Sample Encoding: MPEG audio (layer I, II or III)
Comments :
Title=Tabula Rasa
Artist=Soen
Album=Tellurian
Tracknumber=2/9
Year=2014



Register


Go to the top of the page
  Insert nick Quick quote
+Quote Post
 
Start new topic
Replies (1 - 9)
post Oct 31 2014, 16:46:20
Post #2

Четыре Литра
****
Group: Металариец
Posts: 342
Releases: 0
From: Загорск
On Forums: 6 years 8 months
Thanks: 88 time(s)
Russian Federation


Не слышал таких ещё. Спасибо.
Go to the top of the page
  Insert nick Quick quote
+Quote Post
post Nov 1 2014, 12:27:58
Post #3

Ёлд ХеллоВяйне
Group Icon
Group: V.I.P
Posts: 26,650
Releases: 131
From: Питер
On Forums: 12 years 3 months
Thanks: 14814 time(s)
Russian Federation




Сочненько.


Thanks:
Go to the top of the page
  Insert nick Quick quote
+Quote Post
post Nov 1 2014, 12:31:34
Post #4

Аннигилятор пивА
Group Icon
Group: V.I.P
Posts: 52,220
Releases: 16496
From: Koenigsberg - TILZIT
On Forums: 12 years 8 months
Thanks: 357260 time(s)
Russian Federation


ЦИТАТА(Xutun @ Oct 31 2014, 15:46:20) *
Не слышал таких ещё. Спасибо.

считались клоном туул, альтернатива такая тяжеленькая с прогом (IMG:style_emoticons/default/crazy.gif) но хитов им как всегда до тула не хватает, это судьба (IMG:style_emoticons/default/1488.gif)
и да, непонятно что тул в неформате, а сабж более попсовая версия в


Thanks:
Go to the top of the page
  Insert nick Quick quote
+Quote Post
post Nov 17 2014, 20:14:54
Post #5

Мегаманьяк
***********
Group: Металариец
Posts: 1,947
Releases: 0
From: Мытищи
On Forums: 10 years 11 months
Thanks: 1088 time(s)
Russian Federation


Вроде отлично все поначалу, но с середины альбома начинают утомлять некой однообразностью... Альбом кажется длиннее, чем он есть, и во многом, правда Эстетика, за счет отсутствия хитов, или хотя бы запоминающихся и цепляющих тем. Послушаю еще завтра, может не вкурил с первого раза) А облога вполне веселая, кстати)) так как занимаюсь посудой, узнал на столе современные солонку с перечницей Pasabahce (IMG:style_emoticons/default/1488.gif)


Thanks:
Go to the top of the page
  Insert nick Quick quote
+Quote Post
post Nov 24 2014, 18:16:04
Post #6

Ъ
**************
Group: Металариец
Posts: 9,378
Releases: 9
On Forums: 10 years 1 month
Thanks: 1802 time(s)
Sweden


Песня из клипа не вдохновляет, играть умеют, музыка качественная, но как то уж совсем они без искры, скука.
Go to the top of the page
  Insert nick Quick quote
+Quote Post
post Feb 3 2017, 09:40:09
Post #7

Going home. Flying high.
**************
Group: Металариец
Posts: 12,629
Releases: 0
From: The Land of Shadows
On Forums: 12 years 6 months
Thanks: 18901 time(s)
Russian Federation


from the web
Register

or lossless
Register


Thanks:
Go to the top of the page
  Insert nick Quick quote
+Quote Post
post Feb 11 2019, 19:21:39
Post #8

Три Литра
***
Group: Завсегдатай
Posts: 238
Releases: 0
On Forums: 5 years 3 months
Thanks: 5 time(s)
Germany


can anybody reup this file?
Go to the top of the page
  Insert nick Quick quote
+Quote Post
post Feb 12 2019, 17:25:28
Post #9

Три Литра
***
Group: Завсегдатай
Posts: 238
Releases: 0
On Forums: 5 years 3 months
Thanks: 5 time(s)
Germany


nobody?
Go to the top of the page
  Insert nick Quick quote
+Quote Post
post Feb 12 2019, 17:26:52
Post #10

Правь статус, ####!111
**************
Group: Металариец
Posts: 37,287
Releases: 547
On Forums: 9 years 8 months
Thanks: 28666 time(s)
Russian Federation


@320

Register


Thanks:
(1) carla667,
Go to the top of the page
  Insert nick Quick quote
+Quote Post

Reply to this topicStart new topic
1 User(s) are reading this topic (1 Guests and 0 Anonymous Users)
0 Members:

 



- Lo-Fi Version Support form
Copyrights and abuse reports form
Time is now: 17th February 2019 - 00:15:00