Welcome Guest ( Log In | Register )

> 

Здесь релизы с живыми прямыми ссылками на lossless

> Deathronation - Hallow The Dead (2014), Old School Death Metal
post Oct 30 2014, 17:27:16
Post #1

Правь статус, ####!111
**************
Group: Металариец
Posts: 25,087
Releases: 17846
From: Г.Харьков
On Forums: 8 years 9 months
Thanks: 348495 time(s)
Unknown


(IMG:http://metalarea.org/images/audiocovers/2014_Oct/acov_tid232959_thumb.jpg)

*Artist: Deathronation
*Album: Hallow The Dead
*Year: 2014
*Genre: Old School Death Metal
*Country: Germany (IMG:http://metalarea.org/forum/style_images/flags/Germany.png)
*Format: mp3@CBR320kbps
*Size: 100MB

Tracklist:
1. Deathchant Assyria 07:08
2. Spiritual Relief 05:10
3. Ghostwipper 04:05
4. Beg For Your God 05:00
5. Church Of Salvation 04:30
6. Steelpanther's Fist 04:47
7. Realm Of Shadows 04:38
8. Age Of Whoros 05:26
******************************
Total playing time: 40:44



Technical info
(IMG:http://metalarea.org/images/spectrogram/2014_Oct/393b2e9e31f61cc9b12af55e9d9f348c.png)
Input File: 02 Spiritual Relief.mp3
Channels : 2
Sample Rate : 44100
Precision : 16-bit
Duration : 00:05:10.81 = 13706589 samples = 23310.5 CDDA sectors
File Size : 12.8M
Bit Rate : 331k
Sample Encoding: MPEG audio (layer I, II or III)
Comments :
Title=Spiritual Relief
Artist=Deathronation
Album=Hallow The Dead
Tracknumber=2
Year=2014
Genre=22



Register


Go to the top of the page
  Insert nick Quick quote
+Quote Post
 
Start new topic
Replies (1 - 7)
post Oct 31 2014, 17:19:32
Post #2

i listen to black metal
**************
Group: Металариец
Posts: 2,818
Releases: 136
From: Москва-Лианозово
On Forums: 14 years 2 months
Thanks: 2265 time(s)
Russian Federation


ну всё хорошо,только речетатив вокалера чуть чуть напрягает


Thanks:
(1) Bob,
Go to the top of the page
  Insert nick Quick quote
+Quote Post
post Nov 2 2014, 21:07:08
Post #3

Правь статус, ####!111
**************
Group: Металариец
Posts: 48,221
Releases: 775
On Forums: 11 years 8 months
Thanks: 41962 time(s)
Russian Federation


Неплохой приблэкованный материал, очень неплохой!
Go to the top of the page
  Insert nick Quick quote
+Quote Post
post Nov 23 2014, 18:43:37
Post #4

...Only Death Is Real...
**************
Group: Металариец
Posts: 2,934
Releases: 19
On Forums: 10 years 7 months
Thanks: 1937 time(s)
Antarctica


320
Register


Thanks:
(1) Tino,
Go to the top of the page
  Insert nick Quick quote
+Quote Post
post Mar 19 2017, 11:50:19
Post #5

Group: Подсевший
Posts: 25
Releases: 0
On Forums: 7 years 9 months
Thanks: 100 time(s)
Afghanistan


Re-up please?
Go to the top of the page
  Insert nick Quick quote
+Quote Post
post Mar 19 2017, 12:03:21
Post #6

Going home. Flying high.
**************
Group: Металариец
Posts: 13,085
Releases: 0
From: The Land of Shadows
On Forums: 14 years 6 months
Thanks: 26324 time(s)
Russian Federation


from the web
Register


Go to the top of the page
  Insert nick Quick quote
+Quote Post
post Mar 19 2017, 21:36:15
Post #7

Group: Подсевший
Posts: 25
Releases: 0
On Forums: 7 years 9 months
Thanks: 100 time(s)
Afghanistan


QUOTE(sperminator @ Mar 19 2017, 12:03:21) *
from the web

Cheers mate (IMG:style_emoticons/default/9.gif)
Go to the top of the page
  Insert nick Quick quote
+Quote Post
post Jan 14 2021, 16:41:08
Post #8

Old School Metal
**************
Group: Металариец
Posts: 3,442
Releases: 0
From: г. Минск
On Forums: 11 years 11 months
Thanks: 7914 time(s)
Belarus



Deathronation - Hallow The Dead (2014)


(IMG:https://d.radikal.ru/d00/2101/a0/b5a46c51f988.jpg)


Format: mp3@320kbps (Lame 3.93.1) + Covers
Register

Lossless: FLAC (image+.cue+.log) + Covers
Register



Thanks:
Go to the top of the page
  Insert nick Quick quote
+Quote Post

Reply to this topicStart new topic
1 User(s) are reading this topic (1 Guests and 0 Anonymous Users)
0 Members:

 



- Lo-Fi Version Support form
Copyrights and abuse reports form
Time is now: 25th February 2021 - 03:20:31