Welcome Guest ( Log In | Register )

> Dark Flood - Inverno (2014), Melodic Death Metal (D4)
post Oct 30 2014, 20:38:34
Post #1

Правь статус, ####!111
**************
Group: Металариец
Posts: 21,325
Releases: 14587
From: Г.Харьков
On Forums: 7 years 10 months
Thanks: 260759 time(s)
Unknown


(IMG:http://metalarea.org/images/audiocovers/2014_Oct/acov_tid232968_thumb.jpg)

*Artist: Dark Flood
*Album: Inverno
*Year: 2014
*Genre: Melodic Death Metal
*Country: Finland (IMG:http://metalarea.org/forum/style_images/flags/Finland.png)
*Format: mp3@CBR320kbps
*Size: 117MB

Tracklist:
01. Hearts into Museums 03:45
02. Misery Is Music 04:38
03. The Fallibles 05:01
04. Culprit’s Script 05:31
05. Force of Nature 07:33
06. The Voice of Absolution 04:06
07. Never-ending Credits 04:49
08. Summer 04:04
09. Inverno 02:35
10. Archetype’s Aspect 08:45
******************************
Total playing time: 50:47


(IMG:http://metalarea.org/images/youtube.png)

Technical info
(IMG:http://metalarea.org/images/spectrogram/2014_Oct/73b691b8c791b8d4bae9bd6c3f9e7d77.png)
Input File: 02. Misery is Music.mp3
Channels : 2
Sample Rate : 44100
Precision : 16-bit
Duration : 00:04:38.52 = 12282732 samples = 20889 CDDA sectors
File Size : 11.3M
Bit Rate : 325k
Sample Encoding: MPEG audio (layer I, II or III)
Comments :
Title=Misery is Music
Artist=Dark Flood
Album=Inverno
Tracknumber=2/10
Year=2014



Register


Go to the top of the page
  Insert nick Quick quote
+Quote Post
 
Start new topic
Replies (1 - 5)
post Oct 31 2014, 07:38:55
Post #2

Волк без яблока
**************
Group: Металариец
Posts: 13,437
Releases: 108
From: Санкт-Петербург
On Forums: 13 years 6 months
Thanks: 15489 time(s)
Russian Federation


Альбом категорически ни о чём. По звучанию не изменились ни капли, а вот цепляющих тем написать за столько-то времени не смогли. Кроме Never-ending Credits, ни одного хита не нашёл. Две песни на 7+ минут вообще не пришей кобыле хвост. И чистого вокала слишком много, аздражает. Обидно, понимаешь, я на них надеялся.
Go to the top of the page
  Insert nick Quick quote
+Quote Post
post Oct 31 2014, 08:13:06
Post #3

::
**************
Group: Металариец
Posts: 2,295
Releases: 3
From: Воронеж
On Forums: 9 years 11 months
Thanks: 1040 time(s)
Russian Federation


Полнейшая хрень, сдобренная наипоганейшим японоподобным? чистым вокалом. Изо всех последних неудачных релизов тут чистый - самый убогий! (IMG:style_emoticons/default/5.gif)
Go to the top of the page
  Insert nick Quick quote
+Quote Post
post Oct 31 2014, 08:39:58
Post #4

Мегаманьяк
***********
Group: Металариец
Posts: 1,969
Releases: 0
From: Украина, Днепр
On Forums: 6 years 10 months
Thanks: 1544 time(s)
Ukraine


А мне, помнится, альбом 2006 года ("The Dead Lines") вполне по душе пришёлся... Да - ничего сверхъестественного, но и слушать было приятно. Забыл уже о них, весьма неожиданно, с новым альбомом...
Неужели всё так плохо?
Go to the top of the page
  Insert nick Quick quote
+Quote Post
post Oct 31 2014, 10:14:40
Post #5

Join my religion, or die
**************
Group: Металариец
Posts: 10,567
Releases: 1469
From: Питера
On Forums: 10 years 6 months
Thanks: 19069 time(s)
Russian Federation


После таких отзывов и слушать расхотелось, или все же?..
Go to the top of the page
  Insert nick Quick quote
+Quote Post
post Nov 24 2014, 19:05:27
Post #6

Ъ
**************
Group: Металариец
Posts: 10,020
Releases: 9
On Forums: 11 years 3 months
Thanks: 1991 time(s)
Sweden


Да не, действительно не стоит такое слушать - унылость.
Go to the top of the page
  Insert nick Quick quote
+Quote Post

Reply to this topicStart new topic
1 User(s) are reading this topic (1 Guests and 0 Anonymous Users)
0 Members:

 



- Lo-Fi Version Support form
Copyrights and abuse reports form
Time is now: 9th April 2020 - 20:04:53