Welcome Guest ( Log In | Register )

> Barbelith - Mirror Unveiled (2014), Depressive Black Metal With Hardcore Influences
post Nov 1 2014, 05:08:16
Post #1

Правь статус, ####!111
**************
Group: Металариец
Posts: 19,818
Releases: 13447
From: Г.Харьков
On Forums: 7 years 7 months
Thanks: 232590 time(s)
Unknown


(IMG:http://metalarea.org/images/audiocovers/2014_Nov/acov_tid233059_thumb.jpg)

*Artist: Barbelith
*Album: Mirror Unveiled
*Year: 2014
*Genre: Depressive Black Metal With Hardcore Influences
*Country: United States (IMG:http://metalarea.org/forum/style_images/flags/United%20States.png)
*Format: mp3@CBR320kbps
*Size: 92MB

Tracklist:
1. Beyond the Envelope of Sleep 03:59
2. Astral Plane 14:03
3. Black Hole of Fractured Reflections 13:01
4. Reverse Fall 06:10
******************************
Total playing time: 37:13



Technical info
(IMG:http://metalarea.org/images/spectrogram/2014_Nov/df5e56cc22b099bb5c5afd10ed9de50d.png)
Input File: 02. Astral Plane.mp3
Channels : 2
Sample Rate : 44100
Precision : 16-bit
Duration : 00:14:03.26 = 37187854 samples = 63244.6 CDDA sectors
File Size : 35.6M
Bit Rate : 338k
Sample Encoding: MPEG audio (layer I, II or III)
Comments :
Title=Astral Plane
Artist=Barbelith
Album=Mirror Unveiled
Tracknumber=2/4
Year=2014



Register


Go to the top of the page
  Insert nick Quick quote
+Quote Post
 
Start new topic
Replies (1 - 4)
post Nov 1 2014, 06:32:05
Post #2

Don't be negative.
**************
Group: Металариец
Posts: 2,847
Releases: 750
From: Earthmother
On Forums: 9 years 2 months
Thanks: 10029 time(s)
Ukraine


Post-Black короче.
Go to the top of the page
  Insert nick Quick quote
+Quote Post
Kub
post Nov 1 2014, 08:43:42
Post #3

Guests team






ЦИТАТА(Samaritianin @ 1st November 2014 - 09:08:16) *
Depressive Black Metal With Hardcore Influences

WAT77
Go to the top of the page
  Insert nick Quick quote
+Quote Post
post Dec 3 2019, 05:48:27
Post #4

Group: Дух
Posts: 2
Releases: 0
On Forums: 3 months 1 week
Thanks: 0 time(s)
Unknown


new link please
Go to the top of the page
  Insert nick Quick quote
+Quote Post
post Dec 6 2019, 13:59:28
Post #5


Group Icon
Group: S-moderation team
Posts: 12,910
Releases: 1439
From: Zagreb
On Forums: 8 years 9 months
Thanks: 56026 time(s)
Croatia


Register


Thanks:
(1) Moonlover,
Go to the top of the page
  Insert nick Quick quote
+Quote Post

Reply to this topicStart new topic
1 User(s) are reading this topic (1 Guests and 0 Anonymous Users)
0 Members:

 



- Lo-Fi Version Support form
Copyrights and abuse reports form
Time is now: 11th December 2019 - 03:58:44