Welcome Guest ( Log In | Register )

> Sidious - Revealed In Profane Splendour (2014), Symphonic Blackened Death Metal
post Nov 4 2014, 18:30:22
Post #1

Правь статус, ####!111
**************
Group: Металариец
Posts: 19,818
Releases: 13447
From: Г.Харьков
On Forums: 7 years 7 months
Thanks: 232596 time(s)
Unknown


(IMG:http://metalarea.org/images/audiocovers/2014_Nov/acov_tid233261_thumb.jpg)

*Artist: Sidious
*Album: Revealed In Profane Splendour
*Year: 2014
*Genre: Symphonic Blackened Death Metal
*Country: United Kingdom (IMG:http://metalarea.org/forum/style_images/flags/United%20Kingdom.png)
*Format: mp3@CBR320kbps
*Size: 81MB

Tracklist:
1. Sacrilegious Majesty 04:59
2. Inexorable Revelation 03:59
3. Revealed in Profane Splendour 06:27
4. Annihilation ov Abhorrent Crescent 05:42
5. Obscenity ov Old 03:11
6. Infernal Reign 05:54
7. O Paragon, Bringer ov Light 05:45
******************************
Total playing time: 35:57

Preview 1

Technical info
(IMG:http://metalarea.org/images/spectrogram/2014_Nov/6878accf0c3105fd440e6fa48a461d7a.png)
Input File: 02 - Inexorable Revelation.mp3
Channels : 2
Sample Rate : 44100
Precision : 16-bit
Duration : 00:03:59.71 = 10571299 samples = 17978.4 CDDA sectors
File Size : 9.59M
Bit Rate : 320k
Sample Encoding: MPEG audio (layer I, II or III)
Comments :
Title=Inexorable Revelation
Artist=Sidious
Album=Revealed in Profane Splendour
Tracknumber=2
Year=2014
Genre=Death Metal



Register


Go to the top of the page
  Insert nick Quick quote
+Quote Post
 
Start new topic
Replies (1 - 3)
post Nov 13 2014, 12:23:07
Post #2

Правь статус, ####!111
**************
Group: Металариец
Posts: 19,818
Releases: 13447
From: Г.Харьков
On Forums: 7 years 7 months
Thanks: 232596 time(s)
Unknown


Register


Thanks:
Go to the top of the page
  Insert nick Quick quote
+Quote Post
post Mar 24 2019, 18:30:24
Post #3

Добрый
**************
Group: Металариец
Posts: 2,791
Releases: 0
On Forums: 1 year 5 months
Thanks: 2961 time(s)
Russian Federation


85 mb/320 kbps
Register
Go to the top of the page
  Insert nick Quick quote
+Quote Post
post Dec 3 2019, 08:06:43
Post #4

Два Литра
**
Group: Завсегдатай
Posts: 119
Releases: 1
On Forums: 11 years 4 months
Thanks: 107 time(s)
Egypt


Register
Go to the top of the page
  Insert nick Quick quote
+Quote Post

Reply to this topicStart new topic
1 User(s) are reading this topic (1 Guests and 0 Anonymous Users)
0 Members:

 



- Lo-Fi Version Support form
Copyrights and abuse reports form
Time is now: 11th December 2019 - 04:41:21