Welcome Guest ( Log In | Register )

> Thehappymask - They Were Running Under The Starry Sky [single] (2014), Post-Black Metal/Shoegaze
post Nov 13 2014, 12:20:41
Post #1

Serial Uploader
Group Icon
Group: V.I.P
Posts: 33,289
Releases: 31565
From: Lithuania
On Forums: 10 years 5 months
Thanks: 360579 time(s)
Lithuania


(IMG:https://metalarea.org/images/audiocovers/2014_Nov/acov_tid233766_thumb.jpg)

*Artist: Thehappymask
*Album: They Were Running Under The Starry Sky [single]
*Year: 2014
*Genre: Post-Black Metal/Shoegaze
*Country: Russian Federation (IMG:https://metalarea.org/forum/style_images/flags/Russian%20Federation.png)
*Format: mp3@CBR320kbps
*Size: 17MB

Tracklist:
01. They Were Running Under The Starry Sky 07:20
******************************
Total playing time: 7:20

(IMG:https://metalarea.org/images/myspace.png)


Preview 4

(IMG:http://metalarea.org/images/youtube.png)

Technical info
(IMG:https://metalarea.org/images/spectrogram/2014_Nov/ec7ce4f4a81f70eda02566dfca51e473.png)
Input File: 01. they were running under the starry sky.mp3
Channels : 2
Sample Rate : 44100
Precision : 16-bit
Duration : 00:07:20.86 = 19441794 samples = 33064.3 CDDA sectors
File Size : 17.9M
Bit Rate : 325k
Sample Encoding: MPEG audio (layer I, II or III)
Comments :
Title=they were running under the starry sky
Artist=thehappymask
Album=they were running under the starry sky
Tracknumber=1
Year=2014



Register


Go to the top of the page
  Insert nick Quick quote
+Quote Post
 
Start new topic
Replies (1 - 1)
post Nov 9 2018, 07:53:27
Post #2

Ich bin die Trauer menschlich, kommen Sie zu mir und ich werde Ihnen vergelten
**************
Group: Металариец
Posts: 3,769
Releases: 692
From: Koenigsberg
On Forums: 10 years 10 months
Thanks: 9762 time(s)
Russian Federation


Register

Go to the top of the page
  Insert nick Quick quote
+Quote Post

Reply to this topicStart new topic
1 User(s) are reading this topic (1 Guests and 0 Anonymous Users)
0 Members:

 



- Lo-Fi Version Support form
Copyrights and abuse reports form
Time is now: 17th November 2018 - 10:28:08