Welcome Guest ( Log In | Register )

> Thehappymask - She Let Herself Fall Weightless Through The Mist [single] (2014), Post-Black Metal/Shoegaze
post Nov 13 2014, 12:32:01
Post #1

Serial Uploader
Group Icon
Group: V.I.P
Posts: 33,289
Releases: 31565
From: Lithuania
On Forums: 10 years 5 months
Thanks: 360579 time(s)
Lithuania


(IMG:https://metalarea.org/images/audiocovers/2014_Nov/acov_tid233767_thumb.jpg)

*Artist: Thehappymask
*Album: She Let Herself Fall Weightless Through The Mist [single]
*Year: 2014
*Genre: Post-Black Metal/Shoegaze
*Country: Russian Federation (IMG:https://metalarea.org/forum/style_images/flags/Russian%20Federation.png)
*Format: mp3@CBR320kbps
*Size: 29MB

Tracklist:
01. She Let Herself Fall Weightless Through The Mist 08:31
02. All Around Turned Into Noise 04:06
******************************
Total playing time: 12:37

(IMG:https://metalarea.org/images/myspace.png)


Preview 4

(IMG:http://metalarea.org/images/youtube.png)

Technical info
(IMG:https://metalarea.org/images/spectrogram/2014_Nov/6172fbf332a35aa0dab1942af0a5e17e.png)
Input File: 01. she let herself fall weightless through the mist.mp3
Channels : 2
Sample Rate : 44100
Precision : 16-bit
Duration : 00:08:31.42 = 22553622 samples = 38356.5 CDDA sectors
File Size : 20.6M
Bit Rate : 323k
Sample Encoding: MPEG audio (layer I, II or III)
Comments :
Title=she let herself fall weightless through the mist
Artist=thehappymask
Album=she let herself fall weightless through the mist
Tracknumber=1
Year=2014



Register


Go to the top of the page
  Insert nick Quick quote
+Quote Post
 
Start new topic
Replies (1 - 1)
post Nov 9 2018, 07:46:40
Post #2

Ich bin die Trauer menschlich, kommen Sie zu mir und ich werde Ihnen vergelten
**************
Group: Металариец
Posts: 3,769
Releases: 692
From: Koenigsberg
On Forums: 10 years 10 months
Thanks: 9762 time(s)
Russian Federation


Register

Go to the top of the page
  Insert nick Quick quote
+Quote Post

Reply to this topicStart new topic
2 User(s) are reading this topic (2 Guests and 0 Anonymous Users)
0 Members:

 



- Lo-Fi Version Support form
Copyrights and abuse reports form
Time is now: 17th November 2018 - 10:34:01